Attack of the Show 2012 10 31 x264 OzQuant

Size 314.332 MB   0 seeders     Added 2012-11-01 14:41:01

Stream torrent
Starting‥ You need BitLord! Get it from 1BitLord.com
To download or stream you need BitLord. Visit them at BitLord.com
[size=200]Episode Info[/size]
Happy Halloween from Attack of the Show! Starting tonight 7/6c, Josh Meyers and Candace Bailey welcome back Robert Kirkman from The Walking Dead, and we discuss Disney's acquisition of Lucasfilm and Star Wars on The Loop. Matt Mira reviews the Digital Storm X17E gaming laptop for Gadget Pr0n while we catch up with the cast behind The Man with the Iron Fists.

[size=200]File Info[/size]
Format : MPEG-4
Format profile : Base Media / Version 2
Codec ID : mp42
File size : 300 MiB
Duration : 40mn 29s
Overall bit rate mode : Variable
Overall bit rate : 1 035 Kbps

[size=200]Video[/size]
ID : 1
Format : AVC
Format/Info : Advanced Video Codec
Format profile : Main@L3.0
Format settings, CABAC : Yes
Format settings, ReFrames : 4 frames
Codec ID : avc1
Codec ID/Info : Advanced Video Coding
Duration : 40mn 29s
Bit rate mode : Variable
Bit rate : 967 Kbps
Width : 528 pixels
Height : 416 pixels
Display aspect ratio : 16:9
Frame rate mode : Variable
Frame rate : 25.000 fps
Minimum frame rate : 12.500 fps
Maximum frame rate : 25.000 fps
Color space : YUV
Chroma subsampling : 4:2:0
Bit depth : 8 bits
Scan type : Progressive
Bits/(Pixel*Frame) : 0.176
Stream size : 280 MiB (93%)
Writing library : x264 core 112

[size=200]Audio[/size]
ID : 2
Format : AAC
Format/Info : Advanced Audio Codec
Format profile : LC
Codec ID : 40
Duration : 40mn 29s
Bit rate mode : Variable
Bit rate : 64.0 Kbps
Maximum bit rate : 82.0 Kbps
Channel(s) : 2 channels
Channel positions : Front: L R
Sampling rate : 32.0 KHz
Compression mode : Lossy
Stream size : 18.5 MiB (6%)
Attack.of.the.Show.2012.10.31.x264.OzQuant.mp4 314.332 MB
Gathering some info...

Register and log in Isohunt and see no captcha anymore!

4000 symbols left
Hash 50EC53A238FC5B48747D7BCF86297704C120E2B8

Related torrents for "Attack of the Show 2012 10 31 x264 OzQuant"

Torrent search:

x264 2012