imdb
rating

5.7
The Watch

The Watch (2012)

Comedy, Science Fiction

Full description
quality   dvdrip dvd screener

The Watch (2012)DVDRip.720p.x264 {Worldwide7477} torrent

Size 551.16 MB   9 seeders     Added 2012-11-01 15:00:19

Stream torrent
Starting‥ You need BitLord! Get it from 1BitLord.com
To download or stream you need BitLord. Visit them at BitLord.com
[center][i][b][IMG]image[/IMG]
[IMG]image[/IMG] [IMG]image[/IMG]
[IMG]image[/IMG]
[color=red]The Watch (2012)[/color]
Format : MPEG-4
Format profile : Base Media / Version 2
Codec ID : mp42
File size : 509 MiB
Duration : 1h 42mn
Overall bit rate mode : Variable
Overall bit rate : 696 Kbps
Encoded date : UTC 2012-11-01 05:21:37
Tagged date : UTC 2012-11-01 05:53:16
Writing application : HandBrake 0.9.8 2012071700
Video
ID : 1
Format : AVC
Format/Info : Advanced Video Codec
Format profile : Main@L3.0
Format settings, CABAC : Yes
Format settings, ReFrames : 4 frames
Codec ID : avc1
Codec ID/Info : Advanced Video Coding
Duration : 1h 42mn
Bit rate mode : Variable
Bit rate : 532 Kbps
Width : 720 pixels
Height : 304 pixels
Display aspect ratio : 2.35:1
Frame rate mode : Constant
Frame rate : 25.000 fps
Color space : YUV
Chroma subsampling : 4:2:0
Bit depth : 8 bits
Scan type : Progressive
Bits/(Pixel*Frame) : 0.097
Stream size : 389 MiB (76%)
Writing library : x264 core 120
Encoded date : UTC 2012-11-01 05:21:37
Tagged date : UTC 2012-11-01 05:53:16
Color primaries : BT.601 NTSC
Transfer characteristics : BT.709
Matrix coefficients : BT.601
[IMG]image[/IMG]
[IMG]image[/IMG]
[color=blue]Click Below For IMDB INFO[/color]
[IMG]image[/IMG]
[url="http://www.imdb.com/title/tt1298649/"][IMG]image[/IMG][/url]

Audio
ID : 2
Format : AAC
Format/Info : Advanced Audio Codec
Format profile : LC
Codec ID : 40
Duration : 1h 42mn
Bit rate mode : Variable
Bit rate : 160 Kbps
Maximum bit rate : 285 Kbps
Channel(s) : 2 channels
Channel positions : Front: L R
Sampling rate : 48.0 KHz
Compression mode : Lossy
Delay relative to video : 80ms
Stream size : 117 MiB (23%)
Encoded date : UTC 2012-11-01 05:21:37
Tagged date : UTC 2012-11-01 05:53:15
[IMG]image[/IMG]
[IMG]image[/IMG]
[IMG]image[/IMG]
[color=red]Don't Take It If You Can't Give Back
Click my name add your review and rate thanks enjoy!![/color]
[IMG]image[/IMG] [IMG]image[/IMG] [IMG]image[/IMG]
[/b][/i][/center]
The Watch (2012) Movie Info.txt 3.003 KB
The Watch (2012).mp4 533.555 MB
The Watch (2012)_sample.mp4 17.602 MB
Gathering some info...

Register and log in Isohunt and see no captcha anymore!

4000 symbols left
Hash CA0D5A40F4AB3C4D2794D4572358D009A2CC6B7F

Related torrents for "The Watch (2012)DVDRip.720p.x264 {Worldwide7477} torrent"

Torrent search:

dvdrip x264 hd 2012