Lo Scudo dei Falworth The Black Shield of Falworth 1954

Size 1.431 GB   0 seeders     Added 2012-11-01 18:00:53

Stream torrent
Starting‥ You need BitLord! Get it from 1BitLord.com
To download or stream you need BitLord. Visit them at BitLord.com
The Black Shield of Falworth (1954) - Lo Scudo dei Falworth [XviD - Italian English Ac3 - Sub Ita] MIRCrew [TNT Village]

Lo Scudo dei Falworth (1954) [XviD - Italian English Ac3 - Sub Ita] MIRCrew [TNT Village]


[color=#CC6600][IMG]image[/IMG]

*********************************************

[URL=http://www.imdb.it/title/tt0046789/][IMG]image[/IMG][/URL]

Lo Scudo dei Falworth - The Black Shield of Falworth (1954)

[IMG]image[/IMG]

Titolo originale 	The Black Shield of Falworth
Paese di produzione 	USA
Anno 	1954
Durata 	99 min

Lo scudo dei Falworth (The Black Shield of Falworth) è una pellicola statunitense del 1954, diretta da Rudolph Maté e interpretata da Tony Curtis e Janet Leigh.

Prodotto per la Universal Studios da Robert Arthur e Melville Tucker fu l'adattamento cinematografico del romanzo di Howard Pyle Men on Iron e sceneggiato da Oscar Brodney. La pellicola fu 

la prima prodotta alla Universal ad utilizzare la tecnologia CinemaScope e venne proiettata il 6 ottobre 1954 al Loew's State Theater di New York.

Si tratta della seconda delle cinque pellicole girate da Tony Curtis e Janet Leigh durante la loro unione matrimoniale durata fino al 1961.

Genere 	Avventura
Regia 	Rudolph Maté
Soggetto 	Howard Pyle
Sceneggiatura 	Oscar Brodney
Musiche 	Hans J. Salter

[IMG]image[/IMG]

[IMG]image[/IMG]

 Festival di Cannes 1981: Premio per il contributo artistico (John Boorman)
 Nomination all'Oscar per la miglior fotografia ad Alex Thomson


[IMG]image[/IMG]

 Tony Curtis: Myles Falworth
 Janet Leigh: Lady Anne di Mackworth
 David Farrar: Gilbert Blunt
 Barbara Rush: Meg Falworth
 Torin Thatcher: Sir James
 Herbert Marshall: Conte di Mackworth
 Craig Hill: Francis Gascoyne
 Patrick O'Neal: Walter Blunt

[IMG]image[/IMG]

Il film ha inizio con una scena di caccia nella residenza del Conte di Alban fra i cui partecipanti si trovano re Enrico IV d'Inghilterra, il Conte di Alban e il suo fidato amico Sir 

Robert. A causa di un banale incidente il re abbandona la caccia ed in sua assenza il Conte di Alban manifesta a Sir Robert la sua avversione per il principe Hal, futuro Enrico V 

d'Inghilterra. La partita di caccia fa una pausa nel villaggio di campagna di Crosbey-Dale, dove abitano Diccon l'arciere con i figli Myles e Meg Falworth. Dopo essere stati avvistati da 

Meg, Myles viene fatto nascondere allo scopo di evitare la leva forzata al servizio dell'odiato Conte di Alban.

Quando Sir Robert insegue Meg con lo scopo di abusare di lei, si scontrerà con Myles, dopo una furiosa lotta, Myles è costretto a fuggire inseguito dai soldati del Conte che lo inseguono 

fino alla chiesa di Fratello Edward che li svierà dopo aver dato asilo al fuggitivo..........

[IMG]image[/IMG]

In the days of King Henry IV, stalwart young Myles and his sister Meg have been raised as peasants, without any knowledge of who their father really was. But one day they journey to 

Macworth castle. There Myles falls in love with the Mackworth's daughter Anne, makes friends and enemies, and learns to be a knight so that, through the planning of Mackworth and his 

friend, Prince Hal, Myles can regain his true birthright from the evil Albon, and bear the black shield of Falworth.............. 

[IMG]image[/IMG]

[IMG]image[/IMG]

[IMG]image[/IMG]

[IMG]image[/IMG]

[IMG]image[/IMG]


[IMG]image[/IMG]

General
Complete name : Lo Scudo dei Falworth - The Black Shield of Falworth (1954).avi
Format : AVI
Format/Info : Audio Video Interleave
File size : 1.33 GiB
Duration : 1h 33mn
Overall bit rate : 2 036 Kbps
Writing application : VirtualDubMod 1.5.4.1 (build 2178/release)
Writing library : VirtualDubMod build 2178/release

Video
ID : 0
Format : MPEG-4 Visual
Format profile : Simple@L3
Format settings, BVOP : 1
Format settings, QPel : No
Format settings, GMC : No warppoints
Format settings, Matrix : Custom
Codec ID : XVID
Codec ID/Hint : XviD
Duration : 1h 33mn
Bit rate : 1 643 Kbps
Width : 640 pixels
Height : 368 pixels
Display aspect ratio : 16:9
Frame rate : 25.000 fps
Color space : YUV
Chroma subsampling : 4:2:0
Bit depth : 8 bits
Scan type : Progressive
Compression mode : Lossy
Bits/(Pixel*Frame) : 0.279
Stream size : 1.07 GiB (81%)
Writing library : XviD 1.0.3 (UTC 2004-12-20)

Audio #1
ID : 1
Format : AC-3
Format/Info : Audio Coding 3
Mode extension : CM (complete main)
Codec ID : 2000
Duration : 1h 33mn
Bit rate mode : Constant
Bit rate : 192 Kbps
Channel(s) : 2 channels
Channel positions : Front: L R
Sampling rate : 48.0 KHz
Bit depth : 16 bits
Compression mode : Lossy
Stream size : 128 MiB (9%)
Alignment : Split accross interleaves
Interleave, duration : 96 ms (2.40 video frames)
Interleave, preload duration : 96 ms
Language : Italian

Audio #2
ID : 2
Format : AC-3
Format/Info : Audio Coding 3
Mode extension : CM (complete main)
Codec ID : 2000
Duration : 1h 33mn
Bit rate mode : Constant
Bit rate : 192 Kbps
Channel(s) : 2 channels
Channel positions : Front: L R
Sampling rate : 48.0 KHz
Bit depth : 16 bits
Compression mode : Lossy
Stream size : 128 MiB (9%)
Alignment : Split accross interleaves
Interleave, duration : 96 ms (2.40 video frames)
Interleave, preload duration : 96 ms
Language : English




[IMG]image[/IMG]

	[/color]


Lo Scudo dei Falworth - The Black Shield of Falworth (1954).avi 1.426 GB
Lo Scudo dei Falworth - The Black Shield of Falworth (1954).idx 50.671 KB
Lo Scudo dei Falworth - The Black Shield of Falworth (1954).sub 4.758 MB
Gathering some info...

Register and log in Isohunt and see no captcha anymore!

4000 symbols left
Hash 6DC9A7E0D81E3CA0542ED885402FD4762572E82C