Attack of the Show 2012 11 01 x264 OzQuant

Size 300.598 MB   2 seeders     Added 2012-11-02 14:20:49

Stream torrent
Starting‥ You need BitLord! Get it from 1BitLord.com
To download or stream you need BitLord. Visit them at BitLord.com
[size=200]Episode Info[/size]
Tonight on Attack of the Show, Josh Meyers and Sara Underwood bring you Ike 

Barinholtz from The Mindy Project, Jessica Chobot and Alex Albrecht's take on 

Assassin's Creed 3 and our review of Apple's new iPod Nano.

[size=200]File Info[/size]
Format : MPEG-4
Format profile : Base Media / Version 2
Codec ID : mp42
File size : 287 MiB
Duration : 43mn 36s
Overall bit rate mode : Variable
Overall bit rate : 919 Kbps

[size=200]Video[/size]
ID : 1
Format : AVC
Format/Info : Advanced Video Codec
Format profile : Main@L3.0
Format settings, CABAC : Yes
Format settings, ReFrames : 4 frames
Codec ID : avc1
Codec ID/Info : Advanced Video Coding
Duration : 43mn 36s
Bit rate mode : Variable
Bit rate : 851 Kbps
Width : 528 pixels
Height : 416 pixels
Display aspect ratio : 16:9
Frame rate mode : Variable
Frame rate : 25.000 fps
Minimum frame rate : 12.500 fps
Maximum frame rate : 25.000 fps
Color space : YUV
Chroma subsampling : 4:2:0
Bit depth : 8 bits
Scan type : Progressive
Bits/(Pixel*Frame) : 0.155
Stream size : 265 MiB (93%)
Writing library : x264 core 112

[size=200]Audio[/size]
ID : 2
Format : AAC
Format/Info : Advanced Audio Codec
Format profile : LC
Codec ID : 40
Duration : 43mn 36s
Bit rate mode : Variable
Bit rate : 64.0 Kbps
Maximum bit rate : 85.1 Kbps
Channel(s) : 2 channels
Channel positions : Front: L R
Sampling rate : 32.0 KHz
Compression mode : Lossy
Stream size : 20.0 MiB (7%)
Attack.of.the.Show.2012.11.01.x264.OzQuant.mp4 300.598 MB
Gathering some info...

Register and log in Isohunt and see no captcha anymore!

4000 symbols left
Hash 8BEDBEB16D6057FA3722BD428552A57A26A3BD2B

Related torrents for "Attack of the Show 2012 11 01 x264 OzQuant"

Torrent search:

x264 2012