Rowdee Rathore 2012 720p BluRay nHD x264 (NhaNc3) - Hindi

Size 3.047 GB   0 seeders     Added 2012-11-02 16:52:54

Stream torrent
Starting‥ You need BitLord! Get it from 1BitLord.com
To download or stream you need BitLord. Visit them at BitLord.com
[i][b]Media Info -[/b][/i] 
General
Format : Matroska
File size : 2.84 GiB
Duration : 2h 23mn
Overall bit rate : 2 829 Kbps
Encoded date : UTC 2012-08-10 04:49:01
Writing application : mkvmerge v4.8.0 ('I Got The...') built on May 24 2011 03:12:58
Writing library : libebml v1.2.0 + libmatroska v1.1.0

[b]Video[/b]
ID : 1
Format : AVC
Format/Info : Advanced Video Codec
Format profile : High@L4.1
Format settings, CABAC : Yes
Format settings, ReFrames : 5 frames
Codec ID : V_MPEG4/ISO/AVC
Duration : 2h 23mn
Bit rate : 2 438 Kbps
Width : 1 280 pixels
Height : 544 pixels
Display aspect ratio : 2.35:1
Frame rate : 24.000 fps
Color space : YUV
Chroma subsampling : 4:2:0
Bit depth : 8 bits
Scan type : Progressive
Bits/(Pixel*Frame) : 0.146
Stream size : 2.40 GiB (84%)
Writing library : x264 core 125 r2200 999b753
Language : English
Color primaries : BT.709-5, BT.1361, IEC 61966-2-4, SMPTE RP177
Transfer characteristics : BT.709-5, BT.1361
Matrix coefficients : BT.709-5, BT.1361, IEC 61966-2-4 709, SMPTE RP177

[i][b]Audio[/b][/i]
ID : 2
Format : AC-3
Format/Info : Audio Coding 3
Mode extension : CM (complete main)
Codec ID : A_AC3
Duration : 2h 23mn
Bit rate mode : Constant
Bit rate : 384 Kbps
Channel(s) : 6 channels
Channel positions : Front: L C R, Side: L R, LFE
Sampling rate : 48.0 KHz
Bit depth : 16 bits
Compression mode : Lossy
Stream size : 394 MiB (14%)
Language : English

Ripper : NhaNc3 (Thanks)

Seeding 24x7... Extreme Seeding...


Enjoy!
		
Rowdee.Rathore.2012.720p.BluRay.nHD.x264-NhaNc3.mkv 3.047 GB
Gathering some info...

Register and log in Isohunt and see no captcha anymore!

4000 symbols left
Hash 761ED244245BFB9D2BD32D9874A0DE7EA42AA48B