Tin Tin~[2012]~[DVD~RIP]~700MB~Tamil~[MD Thasneen]

Size 720.076 MB   0 seeders     Added 2012-11-03 16:20:17

Stream torrent
Starting‥ You need BitLord! Get it from BitLord.com
To download or stream you need BitLord. Visit them at BitLord.com
[img]image[/img]


General
Complete name : D:\[DVD~RIP]~Tin Tin~[2012]~700MB~Tamil~[MD Thasneen]\[DVD~RIP]~Tin Tin~[2012]~700MB~Tamil~[MD Thasneen].avi
Format : AVI
Format/Info : Audio Video Interleave
File size : 687 MiB
Duration : 1h 46mn
Overall bit rate : 898 Kbps

Video
ID : 0
Format : MPEG-4 Visual
Format profile : Advanced Simple@L5
Format settings, BVOP : 2
Format settings, QPel : Yes
Format settings, GMC : No warppoints
Format settings, Matrix : Default (H.263)
Codec ID : XVID
Codec ID/Hint : XviD
Duration : 1h 46mn
Bit rate : 837 Kbps
Width : 608 pixels
Height : 282 pixels
Display aspect ratio : 2.2:1
Frame rate : 23.976 fps
Color space : YUV
Chroma subsampling : 4:2:0
Bit depth : 8 bits
Scan type : Progressive
Compression mode : Lossy
Bits/(Pixel*Frame) : 0.204
Stream size : 639 MiB (93%)
Writing library : XviD 1.2.1 (UTC 2008-12-04)

Audio
ID : 1
Format : MPEG Audio
Format version : Version 2
Format profile : Layer 3
Mode : Joint stereo
Mode extension : MS Stereo
Codec ID : 55
Codec ID/Hint : MP3
Duration : 1h 46mn
Bit rate mode : Constant
Bit rate : 56.0 Kbps
Channel(s) : 2 channels
Sampling rate : 24.0 KHz
Compression mode : Lossy
Stream size : 42.8 MiB (6%)
Alignment : Aligned on interleaves
Interleave, duration : 167 ms (4.00 video frames)
Interleave, preload duration : 216 ms
Title : VTS_01_1 T81 2_0ch 192Kbps DELAY -16ms
Writing library : LAME3.99.4
[DVD~RIP]~Tin Tin~[2012]~700MB~Tamil~[MD Thasneen].avi 720.076 MB
Gathering some info...

Register and log in Isohunt and see no captcha anymore!

4000 symbols left
Hash 3F6DCFA671A643634BFA5C4254B2B3EAD5FA031D