H

H (1998)

Comedy

Full description

Revolution.S01E06.Sex.and.Drugs.720p.WEB.DL.DD5.1.H.264.CtrlHD

Size 1.437 GB   0 seeders     Added 2012-11-03 16:56:27

Stream torrent
Starting‥ You need BitLord! Get it from BitLord.com
To download or stream you need BitLord. Visit them at BitLord.com
- 
http://www.Speed.Cd
 
http://www.Speed.Cd       the fast  and The Hottest Private Tracker on the net

Please Seed back to make the speed Faster!!
 ............ NFO .............
-General
Unique ID                                : 201295134858809809812178495436458349460 (0x97700864D2269CCA914B8891ADF0D394)
Complete name                            : Revolution.S01E06.Sex.and.Drugs.720p.WEB-DL.DD5.1.H.264-CtrlHD.mkv
Format                                   : Matroska
Format version                           : Version 2
File size                                : 1.34 GiB
Duration                                 : 43mn 22s
Overall bit rate                         : 4 418 Kbps
Encoded date                             : UTC 2012-10-31 20:57:15
Writing application                      : mkvmerge v5.8.0 ('No Sleep / Pillow') built on Sep  2 2012 15:37:04
Writing library                          : libebml v1.2.3 + libmatroska v1.3.0

Video
ID                                       : 1
Format                                   : AVC
Format/Info                              : Advanced Video Codec
Format profile                           : High@L3.1
Format settings, CABAC                   : No
Format settings, ReFrames                : 2 frames
Codec ID                                 : V_MPEG4/ISO/AVC
Duration                                 : 43mn 22s
Bit rate                                 : 3 946 Kbps
Width                                    : 1 280 pixels
Height                                   : 720 pixels
Display aspect ratio                     : 16:9
Frame rate mode                          : Constant
Frame rate                               : 23.976 fps
Color space                              : YUV
Chroma subsampling                       : 4:2:0
Bit depth                                : 8 bits
Scan type                                : Progressive
Bits/(Pixel*Frame)                       : 0.179
Stream size                              : 1.20 GiB (89%)
Language                                 : English
Default                                  : Yes
Forced                                   : No
Color primaries                          : BT.709
Transfer characteristics                 : BT.709
Matrix coefficients                      : BT.709

Audio
ID                                       : 2
Format                                   : AC-3
Format/Info                              : Audio Coding 3
Mode extension                           : CM (complete main)
Format settings, Endianness              : Big
Codec ID                                 : A_AC3
Duration                                 : 43mn 22s
Bit rate mode                            : Constant
Bit rate                                 : 384 Kbps
Channel(s)                               : 6 channels
Channel positions                        : Front: L C R, Side: L R, LFE
Sampling rate                            : 48.0 KHz
Bit depth                                : 16 bits
Compression mode                         : Lossy
Stream size                              : 119 MiB (9%)
Language                                 : English
Default                                  : Yes
Forced                                   : No		
Revolution.S01E06.Sex.and.Drugs.720p.WEB.DL.DD5.1.H.264.CtrlHD.mkv 1.437 GB
Revolution.S01E06.Sex.and.Drugs.720p.WEB.DL.DD5.1.H.264.CtrlHD.nfo 3.112 KB
www.Speed.Cd read me .txt 47 B
Gathering some info...

Register and log in Isohunt and see no captcha anymore!

4000 symbols left
Hash E28E498905EA44D2A1DBFA750C7491AFF854EBB6

Related torrents for "Revolution.S01E06.Sex.and.Drugs.720p.WEB.DL.DD5.1.H.264.CtrlHD"

Torrent search:

season 01 episode 06 hd