imdb
rating

8.3
American Horror Story

American Horror Story (2011)

Drama, Horror, Mystery

Full description

American.Horror.Story.S02E03.1080p.WEB-DL.DD5.1.H.264-HoodBag

Size 1.68 GB   0 seeders     Added 2012-11-03 17:56:40

Stream torrent
Starting‥ You need BitLord! Get it from BitLord.com
To download or stream you need BitLord. Visit them at BitLord.com
.
..............................Site Info...........................

 -   http://www.scenetime.com  *_*   


Scenetime .Always on time . friendly online private torrent community ..

     We care to share . Join us on  http://www.scenetime.com 

    Be the first to get new release at  http://www.scenetime.com

        Seed back for speed


...................................NFO:.................................................General
Unique ID                                : 206141073369125317432834691166739280258 (0x9B15539BDBF3B352A1B9CB610486B182)
Complete name                            : American.Horror.Story.S02E03.Nor'easter.1080p.WEB-DL.DD5.1.H.264-HoodBag.mkv
Format                                   : Matroska
Format version                           : Version 2
File size                                : 1.56 GiB
Duration                                 : 42mn 5s
Overall bit rate                         : 5 323 Kbps
Encoded date                             : UTC 2012-11-01 12:49:44
Writing application                      : mkvmerge v5.8.0 ('No Sleep / Pillow') built on Sep  2 2012 15:37:04
Writing library                          : libebml v1.2.3 + libmatroska v1.3.0

Video
ID                                       : 1
Format                                   : AVC
Format/Info                              : Advanced Video Codec
Format profile                           : High@L4.0
Format settings, CABAC                   : Yes
Format settings, ReFrames                : 4 frames
Muxing mode                              : Header stripping
Codec ID                                 : V_MPEG4/ISO/AVC
Duration                                 : 42mn 5s
Bit rate                                 : 4 833 Kbps
Width                                    : 1 912 pixels
Height                                   : 1 072 pixels
Display aspect ratio                     : 16:9
Frame rate                               : 23.976 fps
Color space                              : YUV
Chroma subsampling                       : 4:2:0
Bit depth                                : 8 bits
Scan type                                : Progressive
Bits/(Pixel*Frame)                       : 0.098
Stream size                              : 1.42 GiB (91%)
Language                                 : English
Default                                  : Yes
Forced                                   : No
Color primaries                          : BT.709-5, BT.1361, IEC 61966-2-4, SMPTE RP177
Transfer characteristics                 : BT.709-5, BT.1361
Matrix coefficients                      : BT.709-5, BT.1361, IEC 61966-2-4 709, SMPTE RP177

Audio
ID                                       : 2
Format                                   : AC-3
Format/Info                              : Audio Coding 3
Mode extension                           : CM (complete main)
Format settings, Endianness              : Big
Muxing mode                              : Header stripping
Codec ID                                 : A_AC3
Duration                                 : 42mn 5s
Bit rate mode                            : Constant
Bit rate                                 : 384 Kbps
Channel(s)                               : 6 channels
Channel positions                        : Front: L C R, Side: L R, LFE
Sampling rate                            : 48.0 KHz
Bit depth                                : 16 bits
Compression mode                         : Lossy
Stream size                              : 116 MiB (7%)
Language                                 : English
Default                                  : Yes
Forced                                   : No
American.Horror.Story.S02E03.Nor'easter.1080p.WEB-DL.DD5.1.H.264-HoodBag.mkv 1.68 GB
American.Horror.Story.S02E03.Nor'easter.1080p.WEB-DL.DD5.1.H.264-HoodBag.nfo 3.223 KB
Read this before playing this Video.txt 222 B
Gathering some info...

Register and log in Isohunt and see no captcha anymore!

4000 symbols left
Hash 404ECF4133265FCA21189F488DFC1EFD8C8C97E6

Related torrents for "American.Horror.Story.S02E03.1080p.WEB-DL.DD5.1.H.264-HoodBag"

Torrent search:

season 02 episode 03 fullhd web-dl