Once Upon A Time S02E05 1080p WEB DL DD5 1 H 264 ECI

Size 1.784 GB   0 seeders     Added 2012-11-03 17:56:44

To download or stream you need BitLord. Visit them at BitLord.com
- 
http://www.Speed.Cd
 
http://www.Speed.Cd       the fast  and The Hottest Private Tracker on the net

Please Seed back to make the speed Faster!!
 ............ NFO .............
-General
Unique ID                                : 252690484575569013618558708583917283717 (0xBE1A6AC672C4916DB41717CA8BE1E985)
Complete name                            : Once.Upon.A.Time.S02E05.The.Doctor.1080p.WEB-DL.DD5.1.H.264-ECI.mkv
Format                                   : Matroska
Format version                           : Version 2
File size                                : 1.66 GiB
Duration                                 : 43mn 14s
Overall bit rate                         : 5 500 Kbps
Encoded date                             : UTC 2012-10-30 17:12:41
Writing application                      : mkvmerge v5.8.0 ('No Sleep / Pillow') built on Sep  2 2012 15:37:04
Writing library                          : libebml v1.2.3 + libmatroska v1.3.0

Video
ID                                       : 1
Format                                   : AVC
Format/Info                              : Advanced Video Codec
Format profile                           : High@L4.0
Format settings, CABAC                   : Yes
Format settings, ReFrames                : 4 frames
Codec ID                                 : V_MPEG4/ISO/AVC
Duration                                 : 43mn 14s
Bit rate                                 : 5 006 Kbps
Width                                    : 1 920 pixels
Height                                   : 1 080 pixels
Display aspect ratio                     : 16:9
Frame rate mode                          : Constant
Frame rate                               : 23.976 fps
Color space                              : YUV
Chroma subsampling                       : 4:2:0
Bit depth                                : 8 bits
Scan type                                : Progressive
Bits/(Pixel*Frame)                       : 0.101
Stream size                              : 1.51 GiB (91%)
Language                                 : English
Default                                  : Yes
Forced                                   : No
Color primaries                          : BT.709
Transfer characteristics                 : BT.709
Matrix coefficients                      : BT.709

Audio
ID                                       : 2
Format                                   : AC-3
Format/Info                              : Audio Coding 3
Mode extension                           : CM (complete main)
Format settings, Endianness              : Big
Codec ID                                 : A_AC3
Duration                                 : 43mn 14s
Bit rate mode                            : Constant
Bit rate                                 : 384 Kbps
Channel(s)                               : 6 channels
Channel positions                        : Front: L C R, Side: L R, LFE
Sampling rate                            : 48.0 KHz
Bit depth                                : 16 bits
Compression mode                         : Lossy
Stream size                              : 119 MiB (7%)
Language                                 : English
Default                                  : Yes
Forced                                   : No		
Once.Upon.A.Time.S02E05.The.Doctor.1080p.WEB-DL.DD5.1.H.264-ECI.nfo 3.118 KB
Once.Upon.A.Time.S02E05.The.Doctor.1080p.WEB-DL.DD5.1.H.264-ECI.part01.rar 100 MB
Once.Upon.A.Time.S02E05.The.Doctor.1080p.WEB-DL.DD5.1.H.264-ECI.part02.rar 100 MB
Gathering some info...

Register and log in Isohunt and see no captcha anymore!

4000 symbols left
Hash 794DFB9AE368ECDC833C36F54A4D725E6A236BB6