imdb
rating

8.4
Homeland

Homeland (2011)

Drama, Mystery, Thriller

Full description

Homeland.S02E04.1080p.WEB-DL.DD5.1.H.264-KiNGS

Size 1.964 GB   1 seeders     Added 2012-11-03 18:57:19

Stream torrent
Starting‥ You need BitLord! Get it from 1BitLord.com
10
To download or stream you need BitLord. Visit them at BitLord.com
.
..............................Site Info...........................

 -   http://www.scenetime.com  *_*   


Scenetime .Always on time . friendly online private torrent community ..

     We care to share . Join us on  http://www.scenetime.com 

    Be the first to get new release at  http://www.scenetime.com

        Seed back for speed


...................................NFO:.................................................General
Unique ID                                : 181336272335228134690219329473501524596 (0x886C187F19B0A79896CAAC752C1CF274)
Complete name                            : D:iTunesTV ShowsHomelandHomeland.S02E04.1080p.WEB-DL.DD5.1.H.264-KiNGSHomeland.S02E04.1080p.WEB-DL.DD5.1.H.264-KiNGS.mkv
Format                                   : Matroska
Format version                           : Version 2
File size                                : 1.83 GiB
Duration                                 : 49mn 6s
Overall bit rate                         : 5 333 Kbps
Encoded date                             : UTC 2012-10-29 00:09:01
Writing application                      : mkvmerge v5.8.0 ('No Sleep / Pillow') built on Sep  2 2012 15:37:04
Writing library                          : libebml v1.2.3 + libmatroska v1.3.0

Video
ID                                       : 1
Format                                   : AVC
Format/Info                              : Advanced Video Codec
Format profile                           : High@L4.0
Format settings, CABAC                   : Yes
Format settings, ReFrames                : 4 frames
Codec ID                                 : V_MPEG4/ISO/AVC
Duration                                 : 49mn 6s
Bit rate                                 : 4 843 Kbps
Width                                    : 1 920 pixels
Height                                   : 1 080 pixels
Display aspect ratio                     : 16:9
Frame rate mode                          : Constant
Frame rate                               : 23.976 fps
Color space                              : YUV
Chroma subsampling                       : 4:2:0
Bit depth                                : 8 bits
Scan type                                : Progressive
Bits/(Pixel*Frame)                       : 0.097
Stream size                              : 1.66 GiB (91%)
Language                                 : English
Default                                  : Yes
Forced                                   : No
Color primaries                          : BT.709
Transfer characteristics                 : BT.709
Matrix coefficients                      : BT.709

Audio
ID                                       : 2
Format                                   : AC-3
Format/Info                              : Audio Coding 3
Mode extension                           : CM (complete main)
Format settings, Endianness              : Big
Codec ID                                 : A_AC3
Duration                                 : 49mn 6s
Bit rate mode                            : Constant
Bit rate                                 : 384 Kbps
Channel(s)                               : 6 channels
Channel positions                        : Front: L C R, Side: L R, LFE
Sampling rate                            : 48.0 KHz
Bit depth                                : 16 bits
Compression mode                         : Lossy
Stream size                              : 135 MiB (7%)
Language                                 : English
Default                                  : Yes
Forced                                   : No

Text
ID                                       : 3
Format                                   : UTF-8
Codec ID                                 : S_TEXT/UTF8
Codec ID/Info                            : UTF-8 Plain Text
Language                                 : English
Default                                  : Yes
Forced                                   : No		
Homeland.S02E04.1080p.WEB-DL.DD5.1.H.264-KiNGS.mkv 1.964 GB
Homeland.S02E04.1080p.WEB-DL.DD5.1.H.264-KiNGS.nfo 3.541 KB
Read this before playing this Video.txt 222 B
Gathering some info...

Register and log in Isohunt and see no captcha anymore!

4000 symbols left
Hash 91B6E0B26C96718537154F2CA990AAD719712CBD

Related torrents for "Homeland.S02E04.1080p.WEB-DL.DD5.1.H.264-KiNGS"

Torrent search:

season 02 episode 04 fullhd web-dl