imdb
rating

7.6
Rise of the Planet of the Apes

Rise of the Planet of the Apes (2011)

Action, Drama, Science Fiction, Thriller

Full description

Rise of the Planet of the Apes 2011 720p BluRay x264 AC3 5.1 RoR [ENG / Lektor PL]

Size 1.723 GB   0 seeders     Added 2012-11-03 19:00:27

Stream torrent
Starting‥ You need BitLord! Get it from 1BitLord.com
To download or stream you need BitLord. Visit them at BitLord.com
Tytuł PL: ..:: Geneza Planety Małp ::..
Tytuł : ..:: Rise of the Planet of the Apes ::..

Produkcja: USA
Gatunek: Akcja, Dramat, Sci-Fi
Data premiery: 5 sierpnia 2011 (Polska) 3 sierpnia 2011 (świat)
Reżyseria: Rupert Wyatt
Zdjęcia: Andrew Lesnie
Muzyka: Patrick Doyle
Scenariusz: Amanda Silver, Rick Jaffa
Czas trwania: 1 godz. 45 min.
http://release24.pl/szukacz/Rise+of+the+Planet+of+the+Apes//0
http://www.imdb.com/title/tt1318514/

O B S A D A:

John Lithgow, Brian Cox, Ryan Booth, Charles L. Campbell, Jay Caputo, Richard Darwin, Mike Dopud, Rufus Dorsey, Tom Felton, James Franco

O P I S:

Akcja filmu rozgrywa się we współczesnym San Francisco, gdzie naukowcy prowadzą badania genetyczne, w wyniku których dochodzi do narodzin rasy wybitnie inteligentnych małp i wybuchu wojny o ich dominację nad ludźmi.

Rise of the Planet of the Apes 2011 720p BluRay x264 AC3 5.1 RoR PL-ENG.mkv

Format : Matroska
Format version : Version 2
File size : 1.60 GiB
Duration : 1h 44mn
Overall bit rate : 2 189 Kbps
Writing application : Lavf51.12.1
Writing library : Lavf51.12.1

Video
ID : 1
Format : AVC
Format/Info : Advanced Video Codec
Format profile : High@L3.1
Format settings, CABAC : No
Format settings, ReFrames : 1 frame
Format settings, GOP : M=1, N=12
Codec ID : V_MPEG4/ISO/AVC
Duration : 1h 44mn
Bit rate : 1 761 Kbps
Width : 1 280 pixels
Height : 720 pixels
Display aspect ratio : 16:9
Frame rate mode : Variable
Frame rate : 23.976 fps
Color space : YUV
Chroma subsampling : 4:2:0
Bit depth : 8 bits
Scan type : Progressive
Bits/(Pixel*Frame) : 0.080
Stream size : 1.29 GiB (80%)
Language : English
Default : Yes
Forced : No

Audio #1
ID : 2
Format : AC-3
Format/Info : Audio Coding 3
Mode extension : CM (complete main)
Format settings, Endianness : Big
Codec ID : A_AC3
Duration : 1h 44mn
Bit rate mode : Constant
Bit rate : 192 Kbps
Channel(s) : 6 channels
Channel positions : Front: L C R, Side: L R, LFE
Sampling rate : 44.1 KHz
Bit depth : 16 bits
Compression mode : Lossy
Stream size : 144 MiB (9%)
Language : Polish
Default : Yes
Forced : No

Audio #2
ID : 3
Format : AC-3
Format/Info : Audio Coding 3
Mode extension : CM (complete main)
Format settings, Endianness : Big
Codec ID : A_AC3
Duration : 1h 44mn
Bit rate mode : Constant
Bit rate : 192 Kbps
Channel(s) : 6 channels
Channel positions : Front: L C R, Side: L R, LFE
Sampling rate : 44.1 KHz
Bit depth : 16 bits
Compression mode : Lossy
Stream size : 144 MiB (9%)
Language : English
Default : Yes
Forced : No
Rise of the Planet of the Apes 2011 720p BluRay x264 AC3 5.1 RoR PL-ENG.mkv 1.723 GB
Gathering some info...

Register and log in Isohunt and see no captcha anymore!

4000 symbols left
Hash CB1956E181F6242A8E4204D439528C35C1781042

Related torrents for "Rise of the Planet of the Apes 2011 720p BluRay x264 AC3 5.1 RoR [ENG / Lektor PL]"

Torrent search:

english x264 hd bd 2011