imdb
rating

8.6
Supernatural

Supernatural (2005)

Drama, Mystery, Sci-Fi & Fantasy

Full description

Supernatural.S08E05.1080p.WEB-DL.DD5.1.H.264-ECI

Size 1.555 GB   1 seeders     Added 2012-11-03 19:57:21

Stream torrent
Starting‥ You need BitLord! Get it from 1BitLord.com
To download or stream you need BitLord. Visit them at BitLord.com
- 
http://www.Speed.Cd
 
http://www.Speed.Cd       the fast  and The Hottest Private Tracker on the net

Please Seed back to make the speed Faster!!
 ............ NFO .............
-General
Unique ID                                : 177897720695578244601128334937319589376 (0x85D5DACFC133D745802B6D1B9378C600)
Complete name                            : Supernatural.S08E05.Blood.Brother.1080p.WEB-DL.DD5.1.H.264-ECI.mkv
Format                                   : Matroska
Format version                           : Version 2
File size                                : 1.45 GiB
Duration                                 : 42mn 28s
Overall bit rate                         : 4 882 Kbps
Encoded date                             : UTC 2012-11-02 00:47:47
Writing application                      : mkvmerge v5.8.0 ('No Sleep / Pillow') built on Sep  2 2012 15:37:04
Writing library                          : libebml v1.2.3 + libmatroska v1.3.0

Video
ID                                       : 1
Format                                   : AVC
Format/Info                              : Advanced Video Codec
Format profile                           : High@L4.0
Format settings, CABAC                   : Yes
Format settings, ReFrames                : 4 frames
Codec ID                                 : V_MPEG4/ISO/AVC
Duration                                 : 42mn 28s
Bit rate                                 : 4 401 Kbps
Width                                    : 1 920 pixels
Height                                   : 1 080 pixels
Display aspect ratio                     : 16:9
Frame rate mode                          : Constant
Frame rate                               : 23.976 fps
Color space                              : YUV
Chroma subsampling                       : 4:2:0
Bit depth                                : 8 bits
Scan type                                : Progressive
Bits/(Pixel*Frame)                       : 0.089
Stream size                              : 1.31 GiB (90%)
Language                                 : English
Default                                  : Yes
Forced                                   : No
Color primaries                          : BT.709
Transfer characteristics                 : BT.709
Matrix coefficients                      : BT.709

Audio
ID                                       : 2
Format                                   : AC-3
Format/Info                              : Audio Coding 3
Mode extension                           : CM (complete main)
Format settings, Endianness              : Big
Codec ID                                 : A_AC3
Duration                                 : 42mn 28s
Bit rate mode                            : Constant
Bit rate                                 : 384 Kbps
Channel(s)                               : 6 channels
Channel positions                        : Front: L C R, Side: L R, LFE
Sampling rate                            : 48.0 KHz
Bit depth                                : 16 bits
Compression mode                         : Lossy
Stream size                              : 117 MiB (8%)
Language                                 : English
Default                                  : Yes
Forced                                   : No
Supernatural.S08E05.Blood.Brother.1080p.WEB-DL.DD5.1.H.264-ECI.mkv 1.555 GB
Supernatural.S08E05.Blood.Brother.1080p.WEB-DL.DD5.1.H.264-ECI.nfo 3.117 KB
www.Speed.Cd read me .txt 47 B
Gathering some info...

Register and log in Isohunt and see no captcha anymore!

4000 symbols left
Hash 6839D5DD4A70243FEEDE4F8E91CA2D31E78108B8

Related torrents for "Supernatural.S08E05.1080p.WEB-DL.DD5.1.H.264-ECI"

Torrent search:

episode 05 season 08 fullhd web-dl