Anonimus Ft. Lui-G - Enfermo (h264/mp4)

Size 75.743 MB   3 seeders     Added 2012-11-04 08:54:11

Stream torrent
Starting‚Ä• You need BitLord! Get it from 1BitLord.com
To download or stream you need BitLord. Visit them at BitLord.com
General

Format                         : MPEG-4
Format profile                 : Base Media
Codec ID                       : isom
File size                      : 72.2 MiB
Duration                       : 3mn 29s
Overall bit rate mode          : Variable
Overall bit rate               : 2 892 Kbps
Encoded date                   : UTC 2012-10-22 04:31:50
Tagged date                    : UTC 2012-10-22 04:31:50

Video
ID                             : 1
Format                         : AVC
Format/Info                    : Advanced Video Codec
Format profile                 : High@L3.0
Format settings, CABAC         : Yes
Format settings, ReFrames      : 2 frames
Codec ID                       : avc1
Codec ID/Info                  : Advanced Video Coding
Duration                       : 3mn 29s
Bit rate                       : 2 704 Kbps
Maximum bit rate               : 4 322 Kbps
Width                          : 720 pixels
Height                         : 480 pixels
Display aspect ratio           : 16:9
Original display aspect ratio  : 16:9
Frame rate mode                : Constant
Frame rate                     : 23.976 fps
Standard                       : NTSC
Color space                    : YUV
Chroma subsampling             : 4:2:0
Bit depth                      : 8 bits
Scan type                      : Progressive
Bits/(Pixel*Frame)             : 0.326
Stream size                    : 67.5 MiB (93%)


Audio
ID                             : 2
Format                         : AAC
Format/Info                    : Advanced Audio Codec
Format profile                 : LC
Codec ID                       : 40
Duration                       : 3mn 29s
Bit rate mode                  : Variable
Bit rate                       : 185 Kbps
Maximum bit rate               : 223 Kbps
Channel(s)                     : 2 channels
Channel positions              : Front: L R
Sampling rate                  : 44.1 KHz
Compression mode               : Lossy
Stream size                    : 4.62 MiB (6%)		
AnonimusFt.Lui-G-Enfermo-musicvideos-hq.net.mp4 75.743 MB
Gathering some info...

Register and log in Isohunt and see no captcha anymore!

4000 symbols left
Hash CBB000837F92D3F20EACFBD3936B183F408A54BE

We have tons of cool stuff like this:

Torrent search:

h264