imdb
rating

8.2
Criminal Minds

Criminal Minds (2005)

Crime, Drama, Mystery

Full description

Criminal Minds S08E05 720p WEB-DL DD5 1 H264-NFHD

Size 1.368 GB   1 seeders     Added 2012-11-04 14:38:55

Stream torrent
Starting‥ You need BitLord! Get it from 1BitLord.com
To download or stream you need BitLord. Visit them at BitLord.com
- 
http://www.Speed.Cd
 
http://www.Speed.Cd       the fast  and The Hottest Private Tracker on the net

Please Seed back to make the speed Faster!!
 ............ NFO .............
-General
Unique ID                                : 248874797269397608832480455939544720369 (0xBB3B8ADDC526E4B6BD2F90621CCA23F1)
Complete name                            : Criminal Minds S08E05 720p WEB-DL DD5.1 H264-NFHD.mkv
Format                                   : Matroska
Format version                           : Version 2
File size                                : 1.27 GiB
Duration                                 : 42mn 13s
Overall bit rate                         : 4 319 Kbps
Encoded date                             : UTC 2012-11-02 20:08:55
Writing application                      : mkvmerge v5.8.0 ('No Sleep / Pillow') built on Sep  2 2012 15:37:04
Writing library                          : libebml v1.2.3 + libmatroska v1.3.0

Video
ID                                       : 1
Format                                   : AVC
Format/Info                              : Advanced Video Codec
Format profile                           : High@L3.1
Format settings, CABAC                   : No
Format settings, ReFrames                : 2 frames
Codec ID                                 : V_MPEG4/ISO/AVC
Duration                                 : 42mn 13s
Bit rate                                 : 3 849 Kbps
Width                                    : 1 280 pixels
Height                                   : 720 pixels
Display aspect ratio                     : 16:9
Frame rate mode                          : Constant
Frame rate                               : 23.976 fps
Color space                              : YUV
Chroma subsampling                       : 4:2:0
Bit depth                                : 8 bits
Scan type                                : Progressive
Bits/(Pixel*Frame)                       : 0.174
Stream size                              : 1.14 GiB (89%)
Title                                    : Criminal Minds - Season 8, Episode 5: The Good Earth
Language                                 : English
Default                                  : Yes
Forced                                   : No
Color primaries                          : BT.709
Transfer characteristics                 : BT.709
Matrix coefficients                      : BT.709

Audio
ID                                       : 2
Format                                   : AC-3
Format/Info                              : Audio Coding 3
Mode extension                           : CM (complete main)
Format settings, Endianness              : Big
Codec ID                                 : A_AC3
Duration                                 : 42mn 13s
Bit rate mode                            : Constant
Bit rate                                 : 384 Kbps
Channel(s)                               : 6 channels
Channel positions                        : Front: L C R, Side: L R, LFE
Sampling rate                            : 48.0 KHz
Bit depth                                : 16 bits
Compression mode                         : Lossy
Stream size                              : 116 MiB (9%)
Title                                    : Dolby Digital 5.1 @ 384 kbps
Language                                 : English
Default                                  : Yes
Forced                                   : No		
Criminal Minds S08E05 720p WEB-DL DD5.1 H264-NFHD.mkv 1.368 GB
Criminal Minds S08E05 720p WEB-DL DD5.1 H264-NFHD.nfo 3.271 KB
www.Speed.Cd read me .txt 47 B
Gathering some info...

Register and log in Isohunt and see no captcha anymore!

4000 symbols left
Hash 788231755F89F31659E5B107A265C4D2E86AB89C

Related torrents for "Criminal Minds S08E05 720p WEB-DL DD5 1 H264-NFHD"

Torrent search:

h264 episode 05 season 08 hd web-dl