imdb
rating

5.4
Fun Size

Fun Size (2012)

Comedy

Full description
quality   screener dvdrip bd cam telesync

Fun Size 2012 BDRiP XviD-SWAGGER Verified

Size 730.87 MB   0 seeders     Added 2012-11-04 20:07:07

Stream torrent
Starting‥ You need BitLord! Get it from BitLord.com
10
To download or stream you need BitLord. Visit them at BitLord.com
\r\n\r\n\r\n\r\nMedia Info - \r\nGeneral\r\nFormat : MPEG-PS\r\nFile size : 711 MiB\r\nDuration : 2h 6mn\r\nOverall bit rate mode : Variable\r\nOverall bit rate : 789 Kbps\r\nVideo #224\r\nID : 224 (0xE0)\r\nFormat : MPEG Video\r\nFormat version : Version 2\r\nFormat profile : Main@Main\r\nFormat settings, BVOP : Yes\r\nFormat settings, Matrix : Default\r\nDuration : 2h 6mn\r\nBit rate mode : Variable\r\nBit rate : 645 Kbps\r\nMaximum bit rate : 9 672 Kbps\r\nWidth : 352 pixels\r\nHeight : 288 pixels\r\nDisplay aspect ratio : 4:3\r\nFrame rate : 25.000 fps\r\nStandard : PAL\r\nColor space : YUV\r\nChroma subsampling : 4:2:0\r\nBit depth : 8 bits\r\nScan type : Progressive\r\nCompression mode : Lossy\r\nBits/(Pixel*Frame) : 0.255\r\nStream size : 581 MiB (82%)\r\n\r\nAudio #192\r\nID : 192 (0xC0)\r\nFormat : MPEG Audio\r\nFormat version : Version 1\r\nFormat profile : Layer 2\r\nDuration : 2h 6mn\r\nBit rate mode : Constant\r\nBit rate : 128 Kbps\r\nChannel(s) : 2 channels\r\nSampling rate : 48.0 KHz\r\nCompression mode : Lossy\r\nStream size : 115 MiB (16%)\r\n\r\n\r\n\r\n\r\n\r\n\r\n\r\n\r\n\r\n
Fun Size 2012 BDRiP XviD-SWAGGER/subtitles/English/subtitles.srt 47.548 KB
Fun Size 2012 BDRiP XviD-SWAGGER/subtitles/NL/subtitles.srt 71.182 KB
Fun Size 2012 BDRiP XviD-SWAGGER/subtitles/Polish/subtitles.srt 31.875 KB
Gathering some info...

Register and log in Isohunt and see no captcha anymore!

4000 symbols left
Hash 2d5d53357cd4e92cb3b9b300d0a77a4ba26a56d9

Related torrents for "Fun Size 2012 BDRiP XviD-SWAGGER"

Torrent search:

2012 bd