The World's Largest Snake 2009

Size 366.948 MB   0 seeders     Added 2012-11-05 07:58:10

Stream torrent
Starting‥ You need BitLord! Get it from 1BitLord.com
To download or stream you need BitLord. Visit them at BitLord.com
In 2009, a group of passionate scientists stumbled upon fossils of the titanoboa - the biggest snake of all time. At 48 feet long and weighing well over a tonne, the snake is one of the greatest discoveries since the T-rex.

The animal is a relative of modern boa constrictors and lived in the rainforest of north-east Colombia 58-60 million years ago. The spectacular palaeontological find deep in the Cerrejon coal mines in Colombia has blown the doors off a lost period in prehistory.

They had unexpectedly discovered a time after the dinosaurs when the world was once again ruled by super-sized reptiles, battling it out to become the planet's top predators; among them, the gargantuan titanoboa.

Using pin-sharp CGI and scintillating cutting-edge science, the programme brings back the real lost world.

Video 
ID : 0 
Format : MPEG-4 Visual 
Format profile : Advanced Simple@L5 
Format settings, BVOP : 2 
Format settings, QPel : No 
Format settings, GMC : No warppoints 
Format settings, Matrix : Default (H.263) 
Codec ID : XVID 
Codec ID/Hint : XviD 
Duration : 47mn 12s 
Bit rate : 900 Kbps 
Width : 624 pixels 
Height : 352 pixels 
Display aspect ratio : 16:9 
Frame rate : 25.000 fps 
Color space : YUV 
Chroma subsampling : 4:2:0 
Bit depth : 8 bits 
Scan type : Progressive 
Compression mode : Lossy 
Bits/(Pixel*Frame) : 0.164 
Stream size : 304 MiB (87%) 
Writing library : XviD 1.2.1 (UTC 2008-12-04) 




Audio 
ID : 1 
Format : MPEG Audio 
Format version : Version 1 
Format profile : Layer 3 
Mode : Joint stereo 
Mode extension : MS Stereo 
Codec ID : 55 
Codec ID/Hint : MP3 
Duration : 47mn 12s 
Bit rate mode : Variable 
Bit rate : 128 Kbps 
Channel(s) : 2 channels 
Sampling rate : 48.0 KHz 
Compression mode : Lossy 
Stream size : 41.8 MiB (12%) 
Alignment : Aligned on interleaves 
Interleave, duration : 24 ms (0.60 video frame) 
Interleave, preload duration : 523 ms 
Writing library : LAME3.98r 
Encoding settings : -m j -V 4 -q 2 -lowpass 17 --abr 128 		
The.World.Largest.Snake.2009.HDTV.avi 366.948 MB
Gathering some info...

Register and log in Isohunt and see no captcha anymore!

4000 symbols left
Hash D84E87005BC6935A0F0A91C9736D08A8A2BA0272