imdb
rating

7.5
Cloud Atlas

Cloud Atlas (2012)

Drama, Science Fiction

Full description
quality   screener fullhd bd dvdrip hd x264

Cloud Atlas 2012 RETAIL DVDRip XviD-PTpOWeR

Size 706.235 MB   0 seeders     Added 2012-11-05 09:03:09

Stream torrent
Starting‥ You need BitLord! Get it from BitLord.com
To download or stream you need BitLord. Visit them at BitLord.com
\r\n\r\n\r\nLanguage .........: English\r\nSubtitles ........: None\r\n\r\n\r\n\r\n\r\nVideo\r\nID : 0\r\nFormat : MPEG-4 Visual\r\nFormat profile : Advanced Simple@L5\r\nFormat settings, BVOP : Yes\r\nFormat settings, QPel : No\r\nFormat settings, GMC : No warppoints\r\nFormat settings, Matrix : Default (H.263)\r\nCodec ID : XVID\r\nCodec ID/Hint : XviD\r\nDuration : 1h 24mn\r\nBit rate : 1 193 Kbps\r\nWidth : 704 pixels\r\nHeight : 396 pixels\r\nDisplay aspect ratio : 16:9\r\nFrame rate : 23.976 fps\r\nColor space : YUV\r\nChroma subsampling : 4:2:0\r\nBit depth : 8 bits\r\nScan type : Progressive\r\nCompression mode : Lossy\r\nBits/(Pixel*Frame) : 0.178\r\nStream size : 719 MiB (72%)\r\nWriting library : XviD 1.2.1 (UTC 2008-12-04)\r\n\r\nAudio\r\nID : 1\r\nFormat : AC-3\r\nFormat/Info : Audio Coding 3\r\nMode extension : CM (complete main)\r\nCodec ID : 2000\r\nDuration : 1h 24mn\r\nBit rate mode : Constant\r\nBit rate : 448 Kbps\r\nChannel(s) : 6 channels\r\nChannel positions : Front: L C R, Side: L R, LFE\r\nSampling rate : 48.0 KHz\r\nBit depth : 16 bits\r\nCompression mode : Lossy\r\nVideo delay : 42ms\r\nStream size : 270 MiB (27%)\r\nAlignment : Split accross interleaves\r\nInterleave, duration : 500 ms (11.99 video frames)\r\n\r\n\r\n\r\n\r\n\r\n\r\n\r\n
Cloud Atlas 2012 RETAIL DVDRip XviD-PTpOWeR/Cloud Atlas 2012 RETAIL DVDRip.wmv 706.229 MB
Cloud Atlas 2012 RETAIL DVDRip XviD-PTpOWeR/info.nfo 5.215 KB
Cloud Atlas 2012 RETAIL DVDRip XviD-PTpOWeR/Readme.txt 646 B
Gathering some info...

Register and log in Isohunt and see no captcha anymore!

4000 symbols left
Hash 334f710639ac03cb04576240947f3788e398fe98

Related torrents for "Cloud Atlas 2012 RETAIL DVDRip XviD-PTpOWeR"

Torrent search:

dvdrip 2012