imdb
rating

4.6
The Santa Clause 3: The Escape Clause

The Santa Clause 3: The Escape Clause (2006)

Adventure, Comedy, Family

Full description
quality   dvdrip hdtv x264 fullhd bd

The Santa Clause 2006 DVDrip English Skandale

Size 2.106 GB   0 seeders     Added 2012-11-05 17:00:21

Stream torrent
Starting‥ You need BitLord! Get it from BitLord.com
To download or stream you need BitLord. Visit them at BitLord.com
[IMG]image[/IMG]
met Tim Allen, Ann-Margret en Martin Short

Santa Claus, alias Scott Calvin, heeft een groot probleem. Hij moet zijn gezin tevreden houden en dan is hij ook nog eens Kerstman... Alsof dat allemaal nog niet genoeg is moet hij ook nog eens de strijd met Jack Frost aangaan, die heeft zich namelijk voorgenomen Kerstmis over te nemen.

Santa, aka Scott Calvin, is faced with double-duty: how to keep his new family happy, and how to stop Jack Frost from taking over Christmas.

http://www.imdb.com/title/tt0452681/


General
Complete name : The Santa Clause 2006.avi
Format : AVI
Format/Info : Audio Video Interleave
File size : 1.96 GiB
Duration : 1h 28mn
Overall bit rate : 3 183 Kbps

Video
ID : 0
Format : MPEG-4 Visual
Format profile : Simple@L3
Format settings, BVOP : No
Format settings, QPel : No
Format settings, GMC : No warppoints
Format settings, Matrix : Default (H.263)
Codec ID : XVID
Codec ID/Hint : XviD
Duration : 1h 28mn
Bit rate : 2 788 Kbps
Width : 624 pixels
Height : 336 pixels
Display aspect ratio : 1.857
Frame rate : 25.000 fps
Color space : YUV
Chroma subsampling : 4:2:0
Bit depth : 8 bits
Scan type : Progressive
Bits/(Pixel*Frame) : 0.532
Stream size : 1.72 GiB (88%)
Writing library : XviD 1.1.2 (UTC 2006-11-01)

Audio
ID : 1
Format : AC-3
Format/Info : Audio Coding 3
Mode extension : CM (complete main)
Codec ID : 2000
Duration : 1h 28mn
Bit rate mode : Constant
Bit rate : 384 Kbps
Channel(s) : 6 channels
Channel positions : Front: L C R, Side: L R, LFE
Sampling rate : 48.0 KHz
Stream size : 242 MiB (12%)
Alignment : Aligned on interleaves
Interleave, duration : 32 ms (0.80 video frame)

Cover/santa clause 3 cover.jpg 1.352 MB
flyer.jpg 33.678 KB
New Dutch Site.txt 117 B
Gathering some info...

Register and log in Isohunt and see no captcha anymore!

4000 symbols left
Hash 19D915DBF861F4D9A7371039B9CB1F8964C189FB

Related torrents for "The Santa Clause 2006 DVDrip English Skandale"

Torrent search:

dvdrip english 2006