imdb
rating

5.6
Blue-Eyed Butcher

Blue-Eyed Butcher (2012)

Crime, Drama, Thriller

Full description
quality   dvdrip x264 dvdr

Blue Eyed Butcher (2012) STV-DVDRip.x264 {Worldwide7477}

Size 573.912 MB   0 seeders     Added 2012-11-06 12:02:49

Stream torrent
Starting‥ You need BitLord! Get it from BitLord.com
To download or stream you need BitLord. Visit them at BitLord.com
[center][i][b][IMG]image[/IMG]

[IMG]image[/IMG] [IMG]image[/IMG]

[IMG]image[/IMG]

[color=red]Blue Eyed Butcher (2012)[/color]

Format : MPEG-4
Format profile : Base Media / Version 2
Codec ID : mp42
File size : 534 MiB
Duration : 1h 28mn
Overall bit rate mode : Variable
Overall bit rate : 839 Kbps
Encoded date : UTC 2012-11-06 02:33:48
Tagged date : UTC 2012-11-06 03:03:19
Writing application : HandBrake 0.9.8 2012071700

Video
ID : 1
Format : AVC
Format/Info : Advanced Video Codec
Format profile : Main@L3.0
Format settings, CABAC : Yes
Format settings, ReFrames : 4 frames
Codec ID : avc1
Codec ID/Info : Advanced Video Coding
Duration : 1h 28mn
Bit rate mode : Variable
Bit rate : 674 Kbps
Width : 640 pixels
Height : 352 pixels
Display aspect ratio : 16:9
Frame rate mode : Variable
Frame rate : 23.976 fps
Minimum frame rate : 23.974 fps
Maximum frame rate : 23.981 fps
Color space : YUV
Chroma subsampling : 4:2:0
Bit depth : 8 bits
Scan type : Progressive
Bits/(Pixel*Frame) : 0.125
Stream size : 429 MiB (80%)
Writing library : x264 core 120
Encoded date : UTC 2012-11-06 02:33:48
Tagged date : UTC 2012-11-06 03:03:19
Color primaries : BT.601 NTSC
Transfer characteristics : BT.709
Matrix coefficients : BT.601

[IMG]image[/IMG]

[IMG]image[/IMG]

[color=blue]Click Below For IMDB INFO[/color]
[IMG]image[/IMG]
[url="http://www.imdb.com/title/tt2282719/"][IMG]image[/IMG][/url]

Audio
ID : 2
Format : AAC
Format/Info : Advanced Audio Codec
Format profile : LC
Codec ID : 40
Duration : 1h 28mn
Bit rate mode : Variable
Bit rate : 160 Kbps
Maximum bit rate : 280 Kbps
Channel(s) : 2 channels
Channel positions : Front: L R
Sampling rate : 48.0 KHz
Compression mode : Lossy
Delay relative to video : 83ms
Stream size : 102 MiB (19%)
Encoded date : UTC 2012-11-06 02:33:48
Tagged date : UTC 2012-11-06 03:03:18

[IMG]image[/IMG]

[IMG]image[/IMG]
[IMG]image[/IMG]

[color=red]Don't Take It If You Can't Give Back
Click my name add your review and rate thanks enjoy!![/color]
[IMG]image[/IMG] [IMG]image[/IMG] [IMG]image[/IMG]
Blue Eyed Butcher (2012) Movie Info.txt 5.127 KB
Blue Eyed Butcher (2012).mp4 559.64 MB
Blue Eyed Butcher (2012)_sample.mp4 14.267 MB
Gathering some info...

Register and log in Isohunt and see no captcha anymore!

4000 symbols left
Hash 9AE84D6FD6A82E3EF61A7A83BC84399AFA534815

Related torrents for "Blue Eyed Butcher (2012) STV-DVDRip.x264 {Worldwide7477}"

Torrent search:

dvdrip x264 2012