imdb
rating

6.5
Savages

Savages (2012)

Crime, Drama, Thriller

Full description

Savages 2012 DVDrip English Skandale

Size 2.727 GB   0 seeders     Added 2012-11-06 16:00:27

Stream torrent
Starting‥ You need BitLord! Get it from BitLord.com
To download or stream you need BitLord. Visit them at BitLord.com
[IMG]image[/IMG]
met Taylor Kitsch, Aaron Johnson en Blake Lively

Ben (Aaron Johnson), een rustige en vreedzame Boeddhist en zijn beste vriend Chon (Taylor Kitsch), een ex-marinier en ex-huurmoordenaar, runnen samen een succesvolle business. Ze verbouwen de beste marihuana die er is. Daarnaast hebben ze beide een bijzondere relatie met de prachtige Ophelia (Blake Lively). Ze leiden een idyllisch bestaan in het zuiden van Californië, totdat de Mexicaanse drugsorganisatie Baja Cartel eist dat de drie voor hen gaan werken. Elena (Salma Hayek), de meedogenloze leider van het Baja Cartel, en haar koelbloedige handlanger, Lado (Benicio Del Toro), onderschatten de sterke band tussen de drie vrienden. Ben en Chon gaan een hevige strijd aan met het Cartel en krijgen hulp van de corrupte narcotica agent Dennis (John Travolta).


Pot growers Ben and Chon face off against the Mexican drug cartel who kidnapped their shared girlfriend.

http://www.imdb.com/title/tt1615065/


General
Complete name : Savages 2012.avi
Format : AVI
Format/Info : Audio Video Interleave
File size : 2.54 GiB
Duration : 2h 21mn
Overall bit rate : 2 574 Kbps

Video
ID : 0
Format : MPEG-4 Visual
Format profile : Simple@L3
Format settings, BVOP : No
Format settings, QPel : No
Format settings, GMC : No warppoints
Format settings, Matrix : Default (H.263)
Codec ID : XVID
Codec ID/Hint : XviD
Duration : 2h 21mn
Bit rate : 2 115 Kbps
Width : 720 pixels
Height : 304 pixels
Display aspect ratio : 2.35:1
Frame rate : 23.976 fps
Color space : YUV
Chroma subsampling : 4:2:0
Bit depth : 8 bits
Scan type : Progressive
Bits/(Pixel*Frame) : 0.403
Stream size : 2.09 GiB (82%)
Writing library : XviD 1.1.2 (UTC 2006-11-01)

Audio
ID : 1
Format : AC-3
Format/Info : Audio Coding 3
Mode extension : CM (complete main)
Codec ID : 2000
Duration : 2h 21mn
Bit rate mode : Constant
Bit rate : 448 Kbps
Channel(s) : 6 channels
Channel positions : Front: L C R, Side: L R, LFE
Sampling rate : 48.0 KHz
Stream size : 453 MiB (17%)
Alignment : Aligned on interleaves
Interleave, duration : 32 ms (0.77 video frame)




Savages 2012.avi 2.727 GB
Cover/Savages-2012--Front-Cover.jpg 119.041 KB
flyer.jpg 33.678 KB
Gathering some info...

Register and log in Isohunt and see no captcha anymore!

4000 symbols left
Hash 15C034BCEFD6D6D4477DFA281DE7726F8DA158BC

Related torrents for "Savages 2012 DVDrip English Skandale"

Torrent search:

dvdrip english 2012