Ted 2012 FRENCH DVDRip XviD-ARiSE

Size 734.075 MB   0 seeders     Added 2012-11-06 21:30:01

To download or stream you need BitLord. Visit them at BitLord.com
Ted 2012 FRENCH DVDRip XviD - ARiSE

[IMG]image[/IMG] 

IMDB: 

http://www.imdb.com/title/tt1637725/
106 min  -  Comedy

STATS:

Video
ID                               : 0
Format                           : MPEG-4 Visual
Format profile                   : Advanced Simple@L5
Format settings, BVOP            : 2
Format settings, QPel            : No
Format settings, GMC             : No warppoints
Format settings, Matrix          : Default (MPEG)
Muxing mode                      : Packed bitstream
Codec ID                         : XVID
Codec ID/Hint                    : XviD
Duration                         : 1h 46mn
Bit rate                         : 986 Kbps
Width                            : 720 pixels
Height                           : 320 pixels
Display aspect ratio             : 2.25:1
Frame rate                       : 29.970 fps
Color space                      : YUV
Chroma subsampling               : 4:2:0
Bit depth                        : 8 bits
Scan type                        : Progressive
Compression mode                 : Lossy
Bits/(Pixel*Frame)               : 0.243
Stream size                      : 638 MiB (92%)
Writing library                  : XviD 64

Audio

Format                           : MPEG Audio
Format version                   : Version 1
Format profile                   : Layer 3
Mode                             : Joint stereo
Mode extension                   : MS Stereo
Codec ID                         : 55
Codec ID/Hint                    : MP3
Duration                         : 1h 46mn
Bit rate mode                    : Constant
Bit rate                         : 128 Kbps
Channel(s)                       : 2 channels
Sampling rate                    : 48.0 KHz
Compression mode                 : Lossy
Stream size                      : 55 MiB (7%)
Alignment                        : Split accross interleaves
Interleave, duration             : 33 ms (1.00 video frame)
Interleave, preload duration     : 500 ms


SCREENS:

[IMG]image[/IMG]
[IMG]image[/IMG]
[IMG]image[/IMG]




Ted 2012 FRENCH DVDRip XviD-ARiSE/Screenshot01.png 373.409 KB
Ted 2012 FRENCH DVDRip XviD-ARiSE/Screenshot02.png 456.258 KB
Ted 2012 FRENCH DVDRip XviD-ARiSE/Screenshot03.png 345.5 KB
Gathering some info...

Register and log in Isohunt and see no captcha anymore!

4000 symbols left
Hash fa78b869bc175954c4584824efda20e1c940f986

Related torrents for "Ted 2012 FRENCH DVDRip XviD-ARiSE"

Torrent search:

french 2012