imdb
rating

6.7
Ice Age: Continental Drift

Ice Age: Continental Drift (2012)

Adventure, Animation, Comedy, Family

Full description
quality   dvdrip x264 hd bd screener dvd

Ice Age 4 Continental Drift(2012) 1080p[Dual Audio][ENG(5.1)-HINDI(5.1)]~{PHDR}~

Size 3.599 GB   0 seeders     Added 2012-11-07 10:00:27

Stream torrent
Starting‥ You need BitLord! Get it from BitLord.com
To download or stream you need BitLord. Visit them at BitLord.com
[size=200][b]Ice Age 4 Continental Drift(2012) 1080p[Dual Audio][ENG(5.1)-HINDI(5.1)]~{PHDR}~[/b][/size]
[IMG]image[/IMG]
[img]image[/img]
[IMG]image[/IMG]
[img]image[/img]
Tagline: Manny, Diego, and Sid embark upon another adventure after their 
continent is set adrift. Using an iceberg as a ship, they encounter sea creatures 
and battle pirates as they explore a new world.
Cast
Aziz Ansari ... Squint (voice)
Joy Behar ... Eunice (voice)
Christopher Campbell ... Creature Siren / Various (voice)
Alain Chabat ... Silas (voice)
Ester Dean ... Female Siren (voice)
Peter Dinklage ... Captain Gutt (voice)
Aubrey Graham ... Ethan (voice) (as Drake)
Jason Fricchione ... Dumb Mammoth / Various (voice)
Nick Frost ... Flynn (voice)
Josh Gad ... Louis (voice)
Ben Gleib ... Marshall (voice)
George Jacobs ... Beaver (voice)
Queen Latifah ... Ellie (voice)
Denis Leary ... Diego (voice)
John Leguizamo ... Sid (voice)
Jennifer Lopez ... Shira (voice)
[img]image[/img]
General
Complete name : Ice Age 4 Continental Drift (2012) 1080p[Dual 
Audio][ENG(5.1)-HINDI(5.1)]~{PHDR}~
Format : Matroska
Format version : Version 2
File size : 3.27 GiB
Duration : 1h 27mn
Overall bit rate : 5 338 Kbps
Video
ID : 1
Format : AVC
Format/Info : Advanced Video Codec
Format profile : High@L4.1
Format settings, CABAC : Yes
Format settings, ReFrames : 4 frames
Muxing mode : Header stripping
Codec ID : V_MPEG4/ISO/AVC
Duration : 1h 27mn
Bit rate : 4 250 Kbps
Width : 1 920 pixels
Height : 800 pixels
Display aspect ratio : 2.40:1
Frame rate mode : Constant
Frame rate : 23.976 fps
Color space : YUV
Chroma subsampling : 4:2:0
Bit depth : 8 bits
Scan type : Progressive
Bits/(Pixel*Frame) : 0.115
Stream size : 2.54 GiB (78%)
Writing library : x264 core 128 r2216 198a7ea
Default : Yes
Forced : No
Audio #1
ID : 2
Format : AC-3
Format/Info : Audio Coding 3
Mode extension : CM (complete main)
Format settings, Endianness : Big
Muxing mode : Header stripping
Codec ID : A_AC3
Duration : 1h 27mn
Bit rate mode : Constant
Bit rate : 640 Kbps
Channel(s) : 6 channels
Channel positions : Front: L C R, Side: L R, LFE
Sampling rate : 48.0 KHz
Bit depth : 16 bits
Compression mode : Lossy
Stream size : 402 MiB (12%)
Title : BLURAY~{PHDR}~
Language : English
Default : Yes
Forced : No
Audio #2
ID : 3
Format : AC-3
Format/Info : Audio Coding 3
Mode extension : CM (complete main)
Format settings, Endianness : Big
Muxing mode : Header stripping
Codec ID : A_AC3
Duration : 1h 27mn
Bit rate mode : Constant
Bit rate : 448 Kbps
Channel(s) : 6 channels
Channel positions : Front: L C R, Side: L R, LFE
Sampling rate : 48.0 KHz
Bit depth : 16 bits
Compression mode : Lossy
Delay relative to video : 24ms
Stream size : 281 MiB (8%)
Title : BLURAY~{PHDR}~
Language : Hindi
Default : No
Forced : No
Text
ID : 4
Format : PGS
Muxing mode : zlib
Codec ID : S_HDMV/PGS
Codec ID/Info : The same subtitle format used on BDs/HD-DVDs
Title : BLURAY SDH
Language : English
Default : Yes
Forced : No

[img]image[/img]


[URL=http://www.imagebam.com/image/f22c1e218926195][IMG]image[/IMG][/URL] [URL=http://www.imagebam.com/image/8387ed218926335][IMG]image[/IMG][/URL] [URL=http://www.imagebam.com/image/72c87e218926601][IMG]image[/IMG][/URL] [URL=http://www.imagebam.com/image/883d4e218926690][IMG]image[/IMG][/URL] [URL=http://www.imagebam.com/image/a29afd218926792][IMG]image[/IMG][/URL] [URL=http://www.imagebam.com/image/41ac19218926873][IMG]image[/IMG][/URL] [URL=http://www.imagebam.com/image/6975b8218927006][IMG]image[/IMG][/URL] [URL=http://www.imagebam.com/image/ac5f59218927120][IMG]image[/IMG][/URL] [URL=http://www.imagebam.com/image/21ed7d218927231][IMG]image[/IMG][/URL] 

NOTE :
 
1. SEEDING FROM HIGH SPEED SERVER, ENJOY MAX DOWNLOAD SPEED ;)
2. HINDI AUDIO FROM OWN BLURAY[THANKS TO SNOWDON]
3. ENCODED FROM OWN BLURAY, SO ENJOY PERFECTION
4. DIWALI BLAST NO.3[FEW MORE ON THE WAY]
NEXT BLAST ARTHUR CHRISTMAS WITHIN FEW HOURS, CHECK OUT 
SAMPLE
http://www.sharpfile.com/jqzft64p7hy/Arthur_Christmas%5BSAMPLE%5D.mkv.html
[color=blue][b][size=200]CLICK ON LIKE BUTTON TO CONNECT WITH MY PAGE ON FACEBOOK SO U CAN GET ALL THE LATEST STUFF, UPCOMING ETC ON IT[/size][/b][/color]
[url=http://www.facebook.com/plugins/likebox.php?href=http%3A%2F%2Fwww.facebook.com%2Fphdrthegreat&width=292&height=590&colorscheme=light&show_faces=true&border_color&stream=true&header=true][IMG]image[/IMG][/url]
COVER.jpg 214.377 KB
Ice Age 4 Continental Drift(2012) 1080p[Dual Audio][ENG(5.1)-HINDI(5.1)]~{PHDR}~.mkv 3.529 GB
PHDR.nfo 7.072 KB
Gathering some info...

Register and log in Isohunt and see no captcha anymore!

4000 symbols left
Hash 1E952971898EBA30CA2A29234AE404FF5F478FA0

Related torrents for "Ice Age 4 Continental Drift(2012) 1080p[Dual Audio][ENG(5.1)-HINDI(5.1)]~{PHDR}~"

Torrent search:

english hindi 2012 fullhd