imdb
rating

7.2
Brave

Brave (2012)

Action, Adventure, Animation, Comedy, Fantasy, Family

Full description

Brave 2012 DVDripEnglish Skandale

Size 1.635 GB   0 seeders     Added 2012-11-07 16:20:49

Stream torrent
Starting‥ You need BitLord! Get it from BitLord.com
To download or stream you need BitLord. Visit them at BitLord.com
[IMG]image[/IMG]
met de stemmen van Kelly Macdonald, Emma Thompson en Craig Ferguson

Merida is een gepassioneerde dame met koninklijke ouders, die niets liever wil dan een geweldige boogschutter worden. Wanneer Merida tijdens een meningverschil met haar moeder een roekeloze beslissing neemt, brengt ze het koninkrijk van haar vader en het leven van haar moeder in groot gevaar. Merida doet er alles aan om dit alles terug te draaien en krijgt daarbij te maken met 
onvoorspelbare natuurkrachten, magie en een duistere, eeuwenoude vloek...

Determined to make her own path in life, Princess Merida defies a custom that brings chaos to her kingdom. Granted one wish, Merida must rely on her bravery and her archery skills to undo a beastly curse.

http://www.imdb.com/title/tt1217209/

General
Complete name : Brave 2012.avi
Format : AVI
Format/Info : Audio Video Interleave
File size : 1.52 GiB
Duration : 1h 34mn
Overall bit rate : 2 310 Kbps

Video
ID : 0
Format : MPEG-4 Visual
Format profile : Simple@L3
Format settings, BVOP : No
Format settings, QPel : No
Format settings, GMC : No warppoints
Format settings, Matrix : Default (H.263)
Codec ID : XVID
Codec ID/Hint : XviD
Duration : 1h 34mn
Bit rate : 1 851 Kbps
Width : 720 pixels
Height : 304 pixels
Display aspect ratio : 2.35:1
Frame rate : 23.976 fps
Color space : YUV
Chroma subsampling : 4:2:0
Bit depth : 8 bits
Scan type : Progressive
Bits/(Pixel*Frame) : 0.353
Stream size : 1.22 GiB (80%)
Writing library : XviD 1.1.2 (UTC 2006-11-01)

Audio
ID : 1
Format : AC-3
Format/Info : Audio Coding 3
Mode extension : CM (complete main)
Codec ID : 2000
Duration : 1h 34mn
Bit rate mode : Constant
Bit rate : 448 Kbps
Channel(s) : 6 channels
Channel positions : Front: L C R, Side: L R, LFE
Sampling rate : 48.0 KHz
Stream size : 302 MiB (19%)
Alignment : Aligned on interleaves
Interleave, duration : 32 ms (0.77 video frame)
Brave 2012.avi 1.632 GB
Cover/Brave_2012_R1_CUSTOM-front-movie.jpg 3.666 MB
flyer.jpg 33.678 KB
Gathering some info...

Register and log in Isohunt and see no captcha anymore!

4000 symbols left
Hash 6BB6A076C9064703DBC8C894E721B8E865412C9C

Related torrents for "Brave 2012 DVDripEnglish Skandale"

Torrent search:

2012