imdb
rating

8.8
Dexter

Dexter (2006)

Crime, Drama, Mystery

Full description

Dexter S07E01 Are You.? 1080i HDTV x264 AC3 [Lektor PL]

Size 2.148 GB   3 seeders     Added 2012-11-08 01:41:29

Stream torrent
Starting‥ You need BitLord! Get it from BitLord.com
To download or stream you need BitLord. Visit them at BitLord.com
Tytuł: ..:: Dexter ::..

Produkcja: USA
Gatunek: Dramat, Kryminał
Data premiery: 30.09.2012 - season 7
Reżyseria: Michael Cuesta, Steve Shill
Zdjęcia: Alan Caso, Terry Stacey
Muzyka: Daniel Licht, Rolfe Kent
Stacja telewizyjna: Showtime
Czas trwania odcinka: 50 min.
http://www.filmweb.pl/Dexter
http://www.sho.com/sho/dexter/home

O B S A D A:

Michael C. Hall ... Dexter Morgan
Jennifer Carpenter ... Debra Morgan
Lauren Vélez ... Porucznik Maria LaGuerta
David Zayas ... Angel Batista
James Remar ... Harry Morgan
C.S. Lee ... Vince Masuka
Julie Benz ... Rita Bennett
Desmond Harrington ... Joey Quinn
Christina Robinson ... Astor Bennett
Preston Bailey ... Cody Bennett

O P I S S E R I A L U:

Dexter jest seryjnym mordercą. W dzieciństwie został przygarnięty przez policjanta, Harry'ego, który nauczył go zaspokajać swoje chore pragnienia, będące wynikiem traumatycznych przeżyć. Dexter, posługując się "kodeksem" przybranego ojca, zabija ludzi, którzy sobie (w jego mniemaniu) na to zasłużyli, a jednocześnie swojemu "głodowi" zabijania mówi stanowcze nie! Od czasu śmierci Harry'ego nie ma nikogo, kto znałby mroczną prawdę o Dexterze. Nie wie o tym nawet jego przybrana siostra Deb, pracująca w tym samym oddziale policji Miami. Pewnego dnia w sielankowe życie bohatera wkrada się ktoś, kto wyrywa Dextera z rutyny - morderca z ciężarówki-chłodni. Okalecza swe ofiary w niezwykle oryginalny i wyjątkowy sposób, co imponuje Dexterowi. Okazuje się, że obaj panowie mają ze sobą więcej wspólnego, niż się wydaje... 

Dane techniczne:

Format : Matroska
Format version : Version 2
File size : 2.00 GiB
Duration : 56mn 3s
Overall bit rate : 5 109 Kbps

Video
ID : 1
Format : AVC
Format/Info : Advanced Video Codec
Format profile : High@L4.1
Format settings, CABAC : Yes
Format settings, ReFrames : 2 frames
Codec ID : V_MPEG4/ISO/AVC
Duration : 56mn 3s
Bit rate : 4 719 Kbps
Width : 1 920 pixels
Height : 1 080 pixels
Display aspect ratio : 16:9
Frame rate mode : Constant
Frame rate : 29.970 fps
Stream size : 1.81 GiB (90%)
Writing library : x264

Audio
ID : 2
Format : AC-3
Format/Info : Audio Coding 3
Duration : 56mn 3s
Bit rate mode : Constant
Bit rate : 384 Kbps
Channel(s) : 2 channels
Channel positions : Front: L R
Sampling rate : 48.0 KHz
Stream size : 154 MiB (8%)
Language : Polish
Dexter S07E01 [1080i.HDTV.x264.AC3] [Lektor PL].mkv 2.148 GB
Gathering some info...

Register and log in Isohunt and see no captcha anymore!

4000 symbols left
Hash D869DA2578C46ED5797E0C56889DEBB9A22E46F3

Related torrents for "Dexter S07E01 Are You.? 1080i HDTV x264 AC3 [Lektor PL]"

Torrent search:

episode 01 season 07 x264 hdtv