Sedem chasa razlika S03E01 WEBRip.XviD.API

Size 1.074 GB   1 seeders     Added 2012-11-08 05:54:49

Stream torrent
Starting‥ You need BitLord! Get it from BitLord.com
To download or stream you need BitLord. Visit them at BitLord.com
Format                                   : AVI
Format/Info                              : Audio Video Interleave
File size                                : 500 MiB
Duration                                 : 47mn 51s
Overall bit rate                         : 1 461 Kbps
Writing application                      : Lavf52.84.0

Video
ID                                       : 0
Format                                   : xvid
Codec ID                                 : xvid
Duration                                 : 47mn 51s
Bit rate                                 : 1 322 Kbps
Width                                    : 720 pixels
Height                                   : 400 pixels
Display aspect ratio                     : 16:9
Frame rate                               : 25.000 fps
Bits/(Pixel*Frame)                       : 0.184
Stream size                              : 452 MiB (90%)

Audio
ID                                       : 1
Format                                   : AC-3
Format/Info                              : Audio Coding 3
Mode extension                           : CM (complete main)
Format settings, Endianness              : Big
Codec ID                                 : 2000
Duration                                 : 47mn 51s
Bit rate mode                            : Constant
Bit rate                                 : 128 Kbps
Channel(s)                               : 2 channels
Channel positions                        : Front: L R
Sampling rate                            : 48.0 KHz
Bit depth                                : 16 bits
Compression mode                         : Lossy
Stream size                              : 43.8 MiB (9%)
Alignment                                : Aligned on interleaves
Interleave, duration                     : 32 ms (0.80 video frame)

		
Седем часа разлика.S03E01.WEBRip.XviD.API.avi 1.074 GB
Gathering some info...

Register and log in Isohunt and see no captcha anymore!

4000 symbols left
Hash 82F3A4660FA238BABB562922F5BB11A109069C0D