Attack of the Show 2012 11 08 x264 OzQuant

Size 311.396 MB   0 seeders     Added 2012-11-09 15:20:48

Stream torrent
Starting‥ You need BitLord! Get it from BitLord.com
To download or stream you need BitLord. Visit them at BitLord.com
[size=200]Episode Info[/size]
Tonight on Attack of the Show, John Barrowman and Candace Bailey welcome Naomie Harris from Skyfall to the studio, we discuss all things James Bond related on The Loop and Matt Mira reviews the new Samsung Galaxy Note 2!

[size=200]File Info[/size]
Format : MPEG-4
Format profile : Base Media / Version 2
Codec ID : mp42
File size : 297 MiB
Duration : 43mn 20s
Overall bit rate mode : Variable
Overall bit rate : 958 Kbps

[size=200]Video[/size]
ID : 1
Format : AVC
Format/Info : Advanced Video Codec
Format profile : Main@L3.0
Format settings, CABAC : Yes
Format settings, ReFrames : 4 frames
Codec ID : avc1
Codec ID/Info : Advanced Video Coding
Duration : 43mn 19s
Bit rate mode : Variable
Bit rate : 890 Kbps
Width : 528 pixels
Height : 416 pixels
Display aspect ratio : 16:9
Frame rate mode : Constant
Frame rate : 25.000 fps
Color space : YUV
Chroma subsampling : 4:2:0
Bit depth : 8 bits
Scan type : Progressive
Bits/(Pixel*Frame) : 0.162
Stream size : 276 MiB (93%)
Writing library : x264 core 112

[size=200]Audio[/size]
ID : 2
Format : AAC
Format/Info : Advanced Audio Codec
Format profile : LC
Codec ID : 40
Duration : 43mn 20s
Bit rate mode : Variable
Bit rate : 64.0 Kbps
Maximum bit rate : 80.8 Kbps
Channel(s) : 2 channels
Channel positions : Front: L R
Sampling rate : 32.0 KHz
Compression mode : Lossy
Stream size : 19.8 MiB (7%)
Attack.of.the.Show.2012.11.08.x264.OzQuant.mp4 311.396 MB
Gathering some info...

Register and log in Isohunt and see no captcha anymore!

4000 symbols left
Hash 98DB7E545220AB54C3BDC5E348FF9F38B6C1984C

Related torrents for "Attack of the Show 2012 11 08 x264 OzQuant"

Torrent search:

x264 2012