imdb
rating

2.8
Attack of the Sabretooth

Attack of the Sabretooth (2005)

Horror

Full description
quality   hd bd dvdrip x264 web-rip

Attack Of The Sabretooth (2005) BDRip 480p Hindi-Eng by AbdullaH.mkv

Size 573.855 MB   2 seeders     Added 2012-11-09 20:40:36

Stream torrent
Starting‥ You need BitLord! Get it from 1BitLord.com
To download or stream you need BitLord. Visit them at BitLord.com
Attack Of The Sabretooth (2005) BDRip 480p Hindi-Eng -AbdullaH



Format : Matroska
Format version : Version 2
File size : 547 MiB
Duration : 1h 27mn
Overall bit rate : 870 Kbps
Encoded date : UTC 2012-10-04 09:09:51
Writing application : mkvmerge v5.4.0 ('Piper') built on Mar 10 2012 13:34:39
Writing library : libebml v1.2.3 + libmatroska v1.3.0

Video
ID : 1
Format : AVC
Format/Info : Advanced Video Codec
Format profile : Baseline@L3.0
Format settings, CABAC : No
Format settings, ReFrames : 3 frames
Muxing mode : Header stripping
Codec ID : V_MPEG4/ISO/AVC
Duration : 1h 27mn
Bit rate : 628 Kbps
Width : 720 pixels
Height : 400 pixels
Display aspect ratio : 16:9
Frame rate : 25.000 fps
Color space : YUV
Chroma subsampling : 4:2:0
Bit depth : 8 bits
Scan type : Progressive
Bits/(Pixel*Frame) : 0.087
Stream size : 395 MiB (72%)
Title : Attack Of The Sabretooth (2005) BDRip 480p Hindi-Eng by AbdullaH
Language : English
Default : Yes
Forced : No

Audio #1
ID : 2
Format : MPEG Audio
Format version : Version 1
Format profile : Layer 3
Muxing mode : Header stripping
Codec ID : A_MPEG/L3
Codec ID/Hint : MP3
Duration : 1h 27mn
Bit rate mode : Constant
Bit rate : 96.0 Kbps
Channel(s) : 2 channels
Sampling rate : 44.1 KHz
Compression mode : Lossy
Stream size : 60.4 MiB (11%)
Title : AbdullaH
Language : English
Default : No
Forced : No

Audio #2
ID : 3
Format : MPEG Audio
Format version : Version 1
Format profile : Layer 3
Muxing mode : Header stripping
Codec ID : A_MPEG/L3
Codec ID/Hint : MP3
Duration : 1h 27mn
Bit rate mode : Constant
Bit rate : 128 Kbps
Channel(s) : 2 channels
Sampling rate : 44.1 KHz
Compression mode : Lossy
Stream size : 80.6 MiB (15%)
Title : AbdullaH
Language : Hindi










Attack Of The Sabretooth (2005) BDRip 480p Hindi-Eng by AbdullaH.mkv 573.855 MB
Gathering some info...

Register and log in Isohunt and see no captcha anymore!

4000 symbols left
Hash ADCF9DFE7E20A7313149BA285611BD87BBDEC675

Related torrents for "Attack Of The Sabretooth (2005) BDRip 480p Hindi-Eng by AbdullaH.mkv"

Torrent search:

english 2005 hindi bd