imdb
rating

8.4
Homeland

Homeland (2011)

Drama, Mystery, Thriller

Full description

Homeland S02E01 The Smile 720p WEB-DL x264 AC3 [Lektor PL]

Size 1.074 GB   12 seeders     Added 2012-11-09 21:41:04

Stream torrent
Starting‥ You need BitLord! Get it from BitLord.com
To download or stream you need BitLord. Visit them at BitLord.com
Tytuł: ..:: Homeland ::..

Produkcja: USA
Gatunek: Thriller, Dramat
Data premiery: 30.09.2012 - season 2
Reżyseria: Michael Cuesta, Daniel Attias
Zdjęcia: Chris Manley, Nelson Cragg
Muzyka: Sean Callery
Stacja telewizyjna: Showtime
Czas trwania odcinka: 55 min.
http://www.filmweb.pl/serial/Homeland-2011-595358
http://www.sho.com/sho/homeland/home
Napisy PL: http://grupahatak.pl/ oraz: http://napisy24.pl/katalog/

O B S A D A:

Damian Lewis ... Sierżant Nicholas Brody
Claire Danes ... Carrie Mathison
Morena Baccarin ... Jessica Brody
Navid Negahban ... Abu Nazir
Mandy Patinkin ... Saul Berenson
Jackson Pace ... Chris Brody
Morgan Saylor ... Dana Brody
David Harewood ... David Estes
David Marciano ... Virgil
Diego Klattenhoff ... Mike Faber

O P I S S E R I A L U:

Po ataku na kryjówkę terrorystów w Iraku amerykańskim żołnierzom udaje się odbić jeńca wojennego, który zaginął przed 8 laty. Sierżant Nicholas Brody wraca do kraju jako bohater, jednak nie wszyscy w niego wierzą. Agentka CIA Carrie Anderson nie zważając na innych próbuje udowodnić, że uznany wcześniej za zmarłego żołnierz nie jest już tym samym człowiekiem który wyjechał na misję.

Format : Matroska
Format version : Version 2
File size : 1.00 GiB
Duration : 55mn 20s
Overall bit rate : 2 587 Kbps

Video
ID : 1
Format : AVC
Format/Info : Advanced Video Codec
Format profile : High@L4.1
Format settings, CABAC : Yes
Format settings, ReFrames : 2 frames
Codec ID : V_MPEG4/ISO/AVC
Duration : 55mn 20s
Bit rate : 2 385 Kbps
Width : 1 280 pixels
Height : 720 pixels
Display aspect ratio : 16:9
Frame rate mode : Constant
Frame rate : 23.976 fps
Stream size : 915 MiB (89%)
Writing library : x264

Audio
ID : 2
Format : AC-3
Format/Info : Audio Coding 3
Duration : 55mn 20s
Bit rate mode : Constant
Bit rate : 224 Kbps
Channel(s) : 2 channels
Channel positions : Front: L R
Sampling rate : 48.0 KHz
Stream size : 88.7 MiB (9%)
Language : Polish
Homeland S02E01 - The Smile [720p.WEB-DL.x264.AC3] [Lektor PL].mkv 1.074 GB
Gathering some info...

Register and log in Isohunt and see no captcha anymore!

4000 symbols left
Hash DB0CC3B52841A622A0AC0C8CF491001BDA656F43

Related torrents for "Homeland S02E01 The Smile 720p WEB-DL x264 AC3 [Lektor PL]"

Torrent search:

season 02 episode 01 x264 hd web-dl