imdb
rating

8.4
Homeland

Homeland (2011)

Drama, Mystery, Thriller

Full description

Homeland S02E01 The Smile WEB-DL x264 AC3 RoR [Lektor PL]

Size 445.089 MB   0 seeders     Added 2012-11-10 00:01:00

Stream torrent
Starting‥ You need BitLord! Get it from 1BitLord.com
To download or stream you need BitLord. Visit them at BitLord.com
Tytuł: ..:: Homeland ::..

Produkcja: USA
Gatunek: Thriller, Dramat
Data premiery: 30.09.2012 - season 2
Reżyseria: Michael Cuesta, Daniel Attias
Zdjęcia: Chris Manley, Nelson Cragg
Muzyka: Sean Callery
Stacja telewizyjna: Showtime
Czas trwania odcinka: 55 min.
http://www.filmweb.pl/serial/Homeland-2011-595358
http://www.sho.com/sho/homeland/home
Napisy PL: http://grupahatak.pl/ oraz: http://napisy24.pl/katalog/

O B S A D A:

Damian Lewis ... Sierżant Nicholas Brody
Claire Danes ... Carrie Mathison
Morena Baccarin ... Jessica Brody
Navid Negahban ... Abu Nazir
Mandy Patinkin ... Saul Berenson
Jackson Pace ... Chris Brody
Morgan Saylor ... Dana Brody
David Harewood ... David Estes
David Marciano ... Virgil
Diego Klattenhoff ... Mike Faber

O P I S S E R I A L U:

Po ataku na kryjówkę terrorystów w Iraku amerykańskim żołnierzom udaje się odbić jeńca wojennego, który zaginął przed 8 laty. Sierżant Nicholas Brody wraca do kraju jako bohater, jednak nie wszyscy w niego wierzą. Agentka CIA Carrie Anderson nie zważając na innych próbuje udowodnić, że uznany wcześniej za zmarłego żołnierz nie jest już tym samym człowiekiem który wyjechał na misję.

Homeland S02E01 The Smile WEB-DL x264 AC3 RoR [Lektor PL].mp4

Format : MPEG-4
Format profile : Base Media
Codec ID : isom
File size : 424 MiB
Duration : 55mn 20s
Overall bit rate : 1 072 Kbps
Writing application : Lavf52.94.0

Video
ID : 1
Format : AVC
Format/Info : Advanced Video Codec
Format profile : Main@L3.0
Format settings, CABAC : Yes
Format settings, ReFrames : 2 frames
Codec ID : avc1
Codec ID/Info : Advanced Video Coding
Duration : 55mn 20s
Bit rate : 950 Kbps
Width : 852 pixels
Height : 480 pixels
Display aspect ratio : 16:9
Frame rate mode : Constant
Frame rate : 23.976 fps
Color space : YUV
Chroma subsampling : 4:2:0
Bit depth : 8 bits
Scan type : Progressive
Bits/(Pixel*Frame) : 0.097
Stream size : 372 MiB (88%)
Writing library : x264 core 112 r1834 a51816a
Encoding settings : cabac=1 / ref=1 / deblock=1:0:0 / analyse=0x1:0 / me=dia / subme=2 / psy=1 / psy_rd=0.00:0.00 / mixed_ref=0 / me_range=16 / chroma_me=1 / trellis=0 / 8x8dct=0 / cqm=0 / deadzone=21,11 / fast_pskip=1 / chroma_qp_offset=0 / threads=4 / sliced_threads=0 / nr=0 / decimate=1 / interlaced=0 / constrained_intra=0 / bframes=3 / b_pyramid=0 / b_adapt=1 / b_bias=0 / direct=3 / weightb=0 / open_gop=0 / weightp=2 / keyint=250 / keyint_min=25 / scenecut=40 / intra_refresh=0 / rc_lookahead=40 / rc=abr / mbtree=1 / bitrate=950 / ratetol=1.0 / qcomp=0.60 / qpmin=10 / qpmax=51 / qpstep=4 / ip_ratio=1.41 / aq=1:1.00

Audio
ID : 2
Format : AC-3
Format/Info : Audio Coding 3
Mode extension : CM (complete main)
Format settings, Endianness : Big
Codec ID : ac-3
Duration : 55mn 20s
Bit rate mode : Constant
Bit rate : 128 Kbps
Channel(s) : 2 channels
Channel positions : Front: L R
Sampling rate : 44.1 KHz
Bit depth : 16 bits
Compression mode : Lossy
Delay relative to video : -1s 1ms
Stream size : 50.7 MiB (12%)
Homeland S02E01 The Smile WEB-DL x264 AC3 RoR [Lektor PL].mp4 445.089 MB
Torrent Downloaded From kat.ph.txt 0 B
Gathering some info...

Register and log in Isohunt and see no captcha anymore!

4000 symbols left
Hash A18D283E759C42B62F9AB49A0C5F1D5D53EE8B91

Related torrents for "Homeland S02E01 The Smile WEB-DL x264 AC3 RoR [Lektor PL]"

Torrent search:

season 02 episode 01 x264 web-dl