imdb
rating

8.2
Carry on Jatta

Carry on Jatta (2012)

Full description
quality   screener x264 dvdrip hd fullhd bd

Carry on jatta 720 blu ray @ RDX hd

Size 2.531 GB   1 seeders     Added 2012-11-10 11:55:46

Stream torrent
Starting‥ You need BitLord! Get it from 1BitLord.com
To download or stream you need BitLord. Visit them at BitLord.com
Carry on jatta @ RDX hd

Video
ID                               : 1
Format                           : AVC
Format/Info                      : Advanced Video Codec
Format profile                   : High@L3.1
Format settings, CABAC           : Yes
Format settings, ReFrames        : 1 frame
Codec ID                         : avc1
Codec ID/Info                    : Advanced Video Coding
Duration                         : 2h 23mn
Bit rate mode                    : Variable
Bit rate                         : 2 158 Kbps
Maximum bit rate                 : 7 148 Kbps
Width                            : 1 280 pixels
Height                           : 720 pixels
Display aspect ratio             : 16:9
Frame rate mode                  : Constant
Frame rate                       : 24.000 fps
Color space                      : YUV
Chroma subsampling               : 4:2:0
Bit depth                        : 8 bits
Scan type                        : Progressive
Bits/(Pixel*Frame)               : 0.098
Stream size                      : 2.16 GiB (92%)
Tagged date                      : UTC 2012-10-04 01:09:31

Audio
ID                               : 2
Format                           : AAC
Format/Info                      : Advanced Audio Codec
Format profile                   : LC
Codec ID                         : 40
Duration                         : 2h 23mn
Bit rate mode                    : Variable
Bit rate                         : 192 Kbps
Maximum bit rate                 : 202 Kbps
Channel(s)                       : 2 channels
Channel positions                : Front: L R
Sampling rate                    : 44.1 KHz
Compression mode                 : Lossy
Stream size                      : 197 MiB (8%)
Title                            : IsoMedia File Produced by Google, 5-11-2011
Encoded date                     : UTC 2012-10-04 01:08:08
Tagged date                      : UTC 2012-10-04 01:09:31
 
http://www.imdb.com/title/tt2245544/

this is my first torrent


		
Carry On Jatta @RDX.MP4 2.528 GB
vlcsnap-2012-11-10-08h23m31s26.png 795.832 KB
vlcsnap-2012-11-10-08h23m54s82.png 403.304 KB
Gathering some info...

Register and log in Isohunt and see no captcha anymore!

4000 symbols left
Hash F73C26B4FB378417ED7354CD020C46A71C6C3C61

Related torrents for "Carry on jatta 720 blu ray @ RDX hd"

Torrent search:

hd 2012 bd