H

H (1998)

Comedy

Full description

666.Park.Avenue.S01E06.720p.WEB-DL.DD5.1.H.264-ECI

Size 1.481 GB   0 seeders     Added 2012-11-11 01:57:15

Stream torrent
Starting‥ You need BitLord! Get it from 1BitLord.com
To download or stream you need BitLord. Visit them at BitLord.com
- 
http://www.Speed.Cd
 
http://www.Speed.Cd       the fast  and The Hottest Private Tracker on the net

Please Seed back to make the speed Faster!!
 ............ NFO .............
-General
Unique ID                                : 229453392565842273265843242052808017763 (0xAC9F1DAF72C7BCF2A693F8DC2A6F0763)
Complete name                            : 666.Park.Avenue.S01E06.Diabolic.720p.WEB-DL.DD5.1.H.264-ECI.mkv
Format                                   : Matroska
Format version                           : Version 2
File size                                : 1.38 GiB
Duration                                 : 43mn 13s
Overall bit rate                         : 4 569 Kbps
Encoded date                             : UTC 2012-11-05 21:54:52
Writing application                      : mkvmerge v5.8.0 ('No Sleep / Pillow') built on Sep  2 2012 15:37:04
Writing library                          : libebml v1.2.3 + libmatroska v1.3.0

Video
ID                                       : 1
Format                                   : AVC
Format/Info                              : Advanced Video Codec
Format profile                           : High@L3.1
Format settings, CABAC                   : No
Format settings, ReFrames                : 2 frames
Codec ID                                 : V_MPEG4/ISO/AVC
Duration                                 : 43mn 13s
Bit rate                                 : 4 094 Kbps
Width                                    : 1 280 pixels
Height                                   : 720 pixels
Display aspect ratio                     : 16:9
Frame rate mode                          : Constant
Frame rate                               : 23.976 fps
Color space                              : YUV
Chroma subsampling                       : 4:2:0
Bit depth                                : 8 bits
Scan type                                : Progressive
Bits/(Pixel*Frame)                       : 0.185
Stream size                              : 1.24 GiB (90%)
Language                                 : English
Default                                  : Yes
Forced                                   : No
Color primaries                          : BT.709
Transfer characteristics                 : BT.709
Matrix coefficients                      : BT.709

Audio
ID                                       : 2
Format                                   : AC-3
Format/Info                              : Audio Coding 3
Mode extension                           : CM (complete main)
Format settings, Endianness              : Big
Codec ID                                 : A_AC3
Duration                                 : 43mn 13s
Bit rate mode                            : Constant
Bit rate                                 : 384 Kbps
Channel(s)                               : 6 channels
Channel positions                        : Front: L C R, Side: L R, LFE
Sampling rate                            : 48.0 KHz
Bit depth                                : 16 bits
Compression mode                         : Lossy
Stream size                              : 119 MiB (8%)
Language                                 : English
Default                                  : Yes
Forced                                   : No		
666.Park.Avenue.S01E06.Diabolic.720p.WEB-DL.DD5.1.H.264-ECI.mkv 1.481 GB
666.Park.Avenue.S01E06.Diabolic.720p.WEB-DL.DD5.1.H.264-ECI.nfo 3.111 KB
www.Speed.Cd read me .txt 47 B
Gathering some info...

Register and log in Isohunt and see no captcha anymore!

4000 symbols left
Hash 2A859FE599A1050693C477B49F97B789BAF1F27A

Related torrents for "666.Park.Avenue.S01E06.720p.WEB-DL.DD5.1.H.264-ECI"

Torrent search:

season 01 episode 06 hd web-dl