imdb
rating

8.5
Lost

Lost

Full description

Monihara -1961 [The Lost Jewels (Teen Kanya)] - DVDRip.(Xvid - MP3)~391 MB - E.Sub

Size 422.698 MB   0 seeders     Added 2012-11-11 02:20:47

Stream torrent
Starting‥ You need BitLord! Get it from 1BitLord.com
To download or stream you need BitLord. Visit them at BitLord.com
[CENTER]
[SIZE=5][COLOR="#ff33cc"]Monihara -1961 [The Lost Jewels (Teen Kanya)] - DVDRip.
(Xvid - MP3)~391 MB - E.Sub [/COLOR][/SIZE]

[IMG]image[/IMG] 
[IMG]image[/IMG]
[IMG]image[/IMG]
[/CENTER]
[SIZE=5][CENTER][COLOR="#666600"]Genres: Drama
Release date(s)	5th May, 1961
[IMG]image[/IMG] [url=http://www.imdb.com/title/tt0055508/]Teen Kanya (1961) - IMDb[/url][/COLOR][/CENTER][/SIZE]

[SIZE=4][COLOR="#996600"]Near an abandoned mansion, the village schoolteacher (Gobinda Chakravarti) recounts a story to a hooded man. 

It seems that the house was inhabited by a man Phanibhusan (Kali Banerjee) and his wife Manimalika (Kanika Majumdar). 

The wife is obsessed with jewels and ornaments. She accumulates jewels by nagging her husband. Though they have been married for a long time, she is very cold to him. The husband keeps buying jewels for her in hope of gaining her love.

She has a phobia that one day he may ask the jewels back. A fire destroys his business. To confirm her fear, she offers to sell her jewels. But when he shows some interest in the idea she retreats in panic.

When the husband is away to raise money, she calls her cousin to escort her to her parents' house. The cousin, though, has other plans for the jewels. We see the wife for the last time as they leave the house with all the jewels.

The husband is puzzled at the missing wife and the jewels. He is haunted by what seems to be her ghost. After a series of such incidents, he finds himself facing the ghost of his wife, a black silhouetted figure. The black figure claims be his wife. Afraid, he reaches for a jewel box that he had brought for her on his last trip. The black figure, still wearing gold bangles, charges to grab the jewel box with a horrible laugh.

After listening to the tale, the hooded man says that he has enjoyed the story but it has many errors. He reveals that he is the husband in the story and disappears.
[/COLOR][/SIZE]
[IMG]image[/IMG]
[SIZE=5][COLOR="#008000"]Kali Banerjee - Phanibhusan Saha
Kanika Majumdar - Manimalika
Kumar Roy - Madhusudhan
Gobinda Chakravarti - Schoolmaster and narrator[/COLOR][/SIZE]

[CENTER][IMG]image[/IMG]
General
 Format : AVI
 Format/Info : Audio Video Interleave
 File size : 391 MiB
 Duration : 53mn 1s
 Overall bit rate : 1 031 Kbps
 Video #0
 ID : 0
 Format : MPEG-4 Visual
 Format profile : Advanced Simple@L5
 Format settings, BVOP : 2
 Format settings, QPel : No
 Format settings, GMC : No warppoints
 Format settings, Matrix : Default (H.263)
 Codec ID : XVID
 Codec ID/Hint : XviD
 Duration : 53mn 1s
 Bit rate : 897 Kbps
 Width : 640 pixels
 Height : 480 pixels
 Display aspect ratio : 4:3
 Frame rate : 25.000 fps
 Color space : YUV
 Chroma subsampling : 4:2:0
 Bit depth : 8 bits
 Scan type : Progressive
 Compression mode : Lossy
 Bits/(Pixel*Frame) : 0.117
 Stream size : 340 MiB (87%)
[IMG]image[/IMG]
 Audio #1
 ID : 1
 Format : MPEG Audio
 Format version : Version 1
 Format profile : Layer 3
 Mode : Joint stereo
 Mode extension : MS Stereo
 Codec ID : 55
 Codec ID/Hint : MP3
 Duration : 53mn 1s
 Bit rate mode : Constant
 Bit rate : 128 Kbps
 Channel(s) : 2 channels
 Sampling rate : 48.0 KHz
 Compression mode : Lossy
 Stream size : 48.5 MiB (12%)
[IMG]image[/IMG]
[IMG]image[/IMG]
[IMG]image[/IMG]
[IMG]image[/IMG]
[IMG]image[/IMG]
[IMG]image[/IMG]
[IMG]image[/IMG]
[IMG]image[/IMG]
[IMG]image[/IMG]
[IMG]image[/IMG]
[IMG]image[/IMG]
[IMG]image[/IMG]
[IMG]image[/IMG]
[url=http://www.sendspace.com/file/6u4bof] [SIZE="6"]Sample[/SIZE][/url]
[RIGHT][SIZE=5][COLOR=#2e8b57]seeding 24x7 at 100 mbps+[/COLOR][/SIZE][/RIGHT]

[SIZE=4][B][COLOR=#8b0000]Need reseeding on any of my torrents , just start leeching and PM me..[/COLOR][/B][/SIZE]

[URL=http://www.facebook.com/pages/Hunter/172061499591085][img]image[/img][/url]

[/CENTER]
Monihara -1961 [The Lost Jewels (Teen Kanya)] - DVDRip.(Xvid - MP3)~391 MB - E.Sub.avi 410.084 MB
Sample.avi 7.826 MB
ScreenShoots/1.png 295.601 KB
Gathering some info...

Register and log in Isohunt and see no captcha anymore!

4000 symbols left
Hash 69FDAE4248CA5AA6A3F0DF2AA5D2E1964283A368

Related torrents for "Monihara -1961 [The Lost Jewels (Teen Kanya)] - DVDRip.(Xvid - MP3)~391 MB - E.Sub"

Torrent search:

dvdrip 1961