Arrow S01E05 Damaged 1080p WEB-DL DD5 1 H 264-TB

Size 1.657 GB   0 seeders     Added 2012-11-11 02:41:31

Stream torrent
Starting‥ You need BitLord! Get it from 1BitLord.com
To download or stream you need BitLord. Visit them at BitLord.com
- 
http://www.Speed.Cd
 
http://www.Speed.Cd       the fast  and The Hottest Private Tracker on the net

Please Seed back to make the speed Faster!!
 ............ NFO .............
-General
Unique ID                                : 222552471139995716974458469972480479808 (0xA76E0BFD7B93ABA59C040D0ACAD9D240)
Complete name                            : Arrow.S01E05.Damaged.1080p.WEB-DL.DD5.1.H.264-TB.mkv
Format                                   : Matroska
Format version                           : Version 2
File size                                : 1.54 GiB
Duration                                 : 42mn 14s
Overall bit rate                         : 5 230 Kbps
Movie name                               : Arrow S01E05 by TeddyBlue
Encoded date                             : UTC 2012-11-08 18:48:06
Writing application                      : mkvmerge v5.8.0 ('No Sleep / Pillow') built on Sep  2 2012 15:37:04
Writing library                          : libebml v1.2.3 + libmatroska v1.3.0

Video
ID                                       : 1
Format                                   : AVC
Format/Info                              : Advanced Video Codec
Format profile                           : High@L4.0
Format settings, CABAC                   : Yes
Format settings, ReFrames                : 4 frames
Muxing mode                              : Header stripping
Codec ID                                 : V_MPEG4/ISO/AVC
Duration                                 : 42mn 14s
Bit rate                                 : 4 742 Kbps
Width                                    : 1 920 pixels
Height                                   : 1 080 pixels
Display aspect ratio                     : 16:9
Frame rate mode                          : Constant
Frame rate                               : 23.976 fps
Color space                              : YUV
Chroma subsampling                       : 4:2:0
Bit depth                                : 8 bits
Scan type                                : Progressive
Bits/(Pixel*Frame)                       : 0.095
Stream size                              : 1.40 GiB (91%)
Language                                 : English
Default                                  : Yes
Forced                                   : No
Color primaries                          : BT.709
Transfer characteristics                 : BT.709
Matrix coefficients                      : BT.709

Audio
ID                                       : 2
Format                                   : AC-3
Format/Info                              : Audio Coding 3
Mode extension                           : CM (complete main)
Format settings, Endianness              : Big
Muxing mode                              : Header stripping
Codec ID                                 : A_AC3
Duration                                 : 42mn 14s
Bit rate mode                            : Constant
Bit rate                                 : 384 Kbps
Channel(s)                               : 6 channels
Channel positions                        : Front: L C R, Side: L R, LFE
Sampling rate                            : 48.0 KHz
Bit depth                                : 16 bits
Compression mode                         : Lossy
Stream size                              : 116 MiB (7%)
Language                                 : English
Default                                  : Yes
Forced                                   : No		
[ www.Speed.Cd ] - Arrow.S01E05.Damaged.1080p.WEB-DL.DD5.1.H.264-TB/Arrow.S01E05.Damaged.1080p.WEB-DL.DD5.1.H.264-TB.mkv 1.657 GB
[ www.Speed.Cd ] - Arrow.S01E05.Damaged.1080p.WEB-DL.DD5.1.H.264-TB/Arrow.S01E05.Damaged.1080p.WEB-DL.DD5.1.H.264-TB.nfo 3.232 KB
[ www.Speed.Cd ] - Arrow.S01E05.Damaged.1080p.WEB-DL.DD5.1.H.264-TB/www.Speed.Cd read me .txt 47 B
Gathering some info...

Register and log in Isohunt and see no captcha anymore!

4000 symbols left
Hash 60642c4c48bb0af30b133a185659ad3987c990fa