Arrow S01E05 Damaged 720p WEB-DL DD5 1 H 264-TB

Size 1.404 GB   0 seeders     Added 2012-11-11 02:40:56

Stream torrent
Starting‥ You need BitLord! Get it from BitLord.com
To download or stream you need BitLord. Visit them at BitLord.com
- 
http://www.Speed.Cd
 
http://www.Speed.Cd       the fast  and The Hottest Private Tracker on the net

Please Seed back to make the speed Faster!!
 ............ NFO .............
-General
Unique ID                                : 201007928451619665119043065771861100844 (0x9738B80651B1EA0EB1D5947881DE492C)
Complete name                            : Arrow.S01E05.Damaged.720p.WEB-DL.DD5.1.H.264-TB.mkv
Format                                   : Matroska
Format version                           : Version 2
File size                                : 1.31 GiB
Duration                                 : 42mn 14s
Overall bit rate                         : 4 432 Kbps
Movie name                               : Arrow S01E05 by TeddyBlue
Encoded date                             : UTC 2012-11-08 18:33:17
Writing application                      : mkvmerge v5.8.0 ('No Sleep / Pillow') built on Sep  2 2012 15:37:04
Writing library                          : libebml v1.2.3 + libmatroska v1.3.0

Video
ID                                       : 1
Format                                   : AVC
Format/Info                              : Advanced Video Codec
Format profile                           : High@L3.1
Format settings, CABAC                   : No
Format settings, ReFrames                : 2 frames
Muxing mode                              : Header stripping
Codec ID                                 : V_MPEG4/ISO/AVC
Duration                                 : 42mn 14s
Bit rate                                 : 3 960 Kbps
Width                                    : 1 280 pixels
Height                                   : 720 pixels
Display aspect ratio                     : 16:9
Frame rate                               : 23.976 fps
Color space                              : YUV
Chroma subsampling                       : 4:2:0
Bit depth                                : 8 bits
Scan type                                : Progressive
Bits/(Pixel*Frame)                       : 0.179
Stream size                              : 1.17 GiB (89%)
Language                                 : English
Default                                  : Yes
Forced                                   : No
Color primaries                          : BT.709-5, BT.1361, IEC 61966-2-4, SMPTE RP177
Transfer characteristics                 : BT.709-5, BT.1361
Matrix coefficients                      : BT.709-5, BT.1361, IEC 61966-2-4 709, SMPTE RP177

Audio
ID                                       : 2
Format                                   : AC-3
Format/Info                              : Audio Coding 3
Mode extension                           : CM (complete main)
Format settings, Endianness              : Big
Muxing mode                              : Header stripping
Codec ID                                 : A_AC3
Duration                                 : 42mn 14s
Bit rate mode                            : Constant
Bit rate                                 : 384 Kbps
Channel(s)                               : 6 channels
Channel positions                        : Front: L C R, Side: L R, LFE
Sampling rate                            : 48.0 KHz
Bit depth                                : 16 bits
Compression mode                         : Lossy
Stream size                              : 116 MiB (9%)
Language                                 : English
Default                                  : Yes
Forced                                   : No		
[ www.Speed.Cd ] - Arrow.S01E05.Damaged.720p.WEB-DL.DD5.1.H.264-TB/Arrow.S01E05.Damaged.720p.WEB-DL.DD5.1.H.264-TB.mkv 1.404 GB
[ www.Speed.Cd ] - Arrow.S01E05.Damaged.720p.WEB-DL.DD5.1.H.264-TB/Arrow.S01E05.Damaged.720p.WEB-DL.DD5.1.H.264-TB.nfo 6.664 KB
[ www.Speed.Cd ] - Arrow.S01E05.Damaged.720p.WEB-DL.DD5.1.H.264-TB/www.Speed.Cd read me .txt 47 B
Gathering some info...

Register and log in Isohunt and see no captcha anymore!

4000 symbols left
Hash fd34a99dca0603dd6407db1e90a196d03b9c51e4

Related torrents for "Arrow S01E05 Damaged 720p WEB-DL DD5 1 H 264-TB"

Torrent search:

season 01 episode 05 hd web-dl