imdb
rating

8.6
Boardwalk Empire

Boardwalk Empire (2010)

Crime, Drama

Full description

Boardwalk Empire S03E07 1080p WEB-DL DD5 1 H 264-KiNGS

Size 2.358 GB   0 seeders     Added 2012-11-11 02:40:28

Stream torrent
Starting‥ You need BitLord! Get it from BitLord.com
To download or stream you need BitLord. Visit them at BitLord.com
- 
http://www.Speed.Cd
 
http://www.Speed.Cd       the fast  and The Hottest Private Tracker on the net

Please Seed back to make the speed Faster!!
 ............ NFO .............
-General
Unique ID                                : 254992919036277980561718844847543664103 (0xBFD5D98EF97902E3AB97E4FA2E19BDE7)
Complete name                            : D:iTunesTV ShowsBoardwalk EmpireBoardwalk.Empire.S03E07.1080p.WEB-DL.DD5.1.H.264-KiNGSBoardwalk.Empire.S03E07.1080p.WEB-DL.DD5.1.H.264-KiNGS.mkv
Format                                   : Matroska
Format version                           : Version 2
File size                                : 2.20 GiB
Duration                                 : 58mn 22s
Overall bit rate                         : 5 386 Kbps
Encoded date                             : UTC 2012-10-29 19:06:28
Writing application                      : mkvmerge v5.8.0 ('No Sleep / Pillow') built on Sep  2 2012 15:37:04
Writing library                          : libebml v1.2.3 + libmatroska v1.3.0

Video
ID                                       : 1
Format                                   : AVC
Format/Info                              : Advanced Video Codec
Format profile                           : High@L4.0
Format settings, CABAC                   : Yes
Format settings, ReFrames                : 4 frames
Codec ID                                 : V_MPEG4/ISO/AVC
Duration                                 : 58mn 22s
Bit rate                                 : 4 895 Kbps
Width                                    : 1 920 pixels
Height                                   : 1 080 pixels
Display aspect ratio                     : 16:9
Frame rate mode                          : Constant
Frame rate                               : 23.976 fps
Color space                              : YUV
Chroma subsampling                       : 4:2:0
Bit depth                                : 8 bits
Scan type                                : Progressive
Bits/(Pixel*Frame)                       : 0.098
Stream size                              : 2.00 GiB (91%)
Language                                 : English
Default                                  : Yes
Forced                                   : No
Color primaries                          : BT.709
Transfer characteristics                 : BT.709
Matrix coefficients                      : BT.709

Audio
ID                                       : 2
Format                                   : AC-3
Format/Info                              : Audio Coding 3
Mode extension                           : CM (complete main)
Format settings, Endianness              : Big
Codec ID                                 : A_AC3
Duration                                 : 58mn 22s
Bit rate mode                            : Constant
Bit rate                                 : 384 Kbps
Channel(s)                               : 6 channels
Channel positions                        : Front: L C R, Side: L R, LFE
Sampling rate                            : 48.0 KHz
Bit depth                                : 16 bits
Compression mode                         : Lossy
Stream size                              : 160 MiB (7%)
Language                                 : English
Default                                  : Yes
Forced                                   : No		
[ www.Speed.Cd ] - Boardwalk.Empire.S03E07.1080p.WEB-DL.DD5.1.H.264-KiNGS/Boardwalk.Empire.S03E07.1080p.WEB-DL.DD5.1.H.264-KiNGS.mkv 2.358 GB
[ www.Speed.Cd ] - Boardwalk.Empire.S03E07.1080p.WEB-DL.DD5.1.H.264-KiNGS/Boardwalk.Empire.S03E07.1080p.WEB-DL.DD5.1.H.264-KiNGS.nfo 3.2 KB
[ www.Speed.Cd ] - Boardwalk.Empire.S03E07.1080p.WEB-DL.DD5.1.H.264-KiNGS/www.Speed.Cd read me .txt 47 B
Gathering some info...

Register and log in Isohunt and see no captcha anymore!

4000 symbols left
Hash 07edf665e34618eecefee19508b3bc86e49713dc

Related torrents for "Boardwalk Empire S03E07 1080p WEB-DL DD5 1 H 264-KiNGS"

Torrent search:

season 03 episode 07 fullhd web-dl