Yeh Jo Mohabbat Hai 2012 Hindi 720p DvDrip x264 ...Hon3y

Size 1.221 GB   5 seeders     Added 2012-11-11 03:00:52

Stream torrent
Starting‥ You need BitLord! Get it from 1BitLord.com
10
To download or stream you need BitLord. Visit them at BitLord.com
[center][img]image[/img]

[url]http://www.imdb.com/title/tt2155776/[/url]

[url]http://en.wikipedia.org/wiki/Yeh_Jo_Mohabbat_Hai[/url]

Source : DVD9
Format : Matroska
Format version : Version 2
File size : 1.12 GiB
Duration : 2h 21mn
Overall bit rate : 1 139 Kbps

Video
ID : 1
Format : AVC
Format/Info : Advanced Video Codec
Format profile : High@L3.1
Format settings, CABAC : Yes
Format settings, ReFrames : 5 frames
Codec ID : V_MPEG4/ISO/AVC
Duration : 2h 21mn
Bit rate : 1 000 Kbps
Width : 1 280 pixels
Height : 544 pixels
Display aspect ratio : 2.35:1
Frame rate : 23.976 fps
Color space : YUV
Chroma subsampling : 4:2:0
Bit depth : 8 bits
Scan type : Progressive
Bits/(Pixel*Frame) : 0.060
Stream size : 999 MiB (87%)

Audio
ID : 2
Format : AC-3
Bit rate mode : Constant
Bit rate : 128 Kbps
Channel(s) : 2 channels
Channel positions : Front: L R
Sampling rate : 44.1 KHz
Bit depth : 16 bits
Compression mode : Lossy
Stream size : 129 MiB (11%)
Language : Hindi


Subtitles
Language : English
Language : Arabic

[img]image[/img]
[img]image[/img]
[img]image[/img]
[img]image[/img]
[img]image[/img]
[img]image[/img]
[img]image[/img]
[img]image[/img]
Check The Sample First[/center]
Sample.mkv 8.546 MB
Screen Shots/Hon3y (1).png 721.959 KB
Screen Shots/Hon3y (2).png 843.965 KB
Gathering some info...

Register and log in Isohunt and see no captcha anymore!

4000 symbols left
Hash 595103D04FD7B21F5FD11D45CABDD17CC675421E