imdb
rating

8.3
The Big Bang Theory

The Big Bang Theory (2007)

Comedy

Full description

The Big Bang Theory S06E07 The Habitation Configuration 720p WEB

Size 624.493 MB   4 seeders     Added 2012-11-11 04:00:09

Stream torrent
Starting‥ You need BitLord! Get it from BitLord.com
To download or stream you need BitLord. Visit them at BitLord.com
- 
http://www.Speed.Cd
 
http://www.Speed.Cd       the fast  and The Hottest Private Tracker on the net

Please Seed back to make the speed Faster!!
 ............ NFO .............
-Video
ID : 1
Format : AVC
Format/Info : Advanced Video Codec
Format profile : High@L3.1
Format settings, CABAC : No
Format settings, ReFrames : 2 frames
Codec ID : V_MPEG4/ISO/AVC
Duration : 21mn 29s
Bit rate : 3 413 Kbps
Width : 1 280 pixels
Height : 720 pixels
Display aspect ratio : 16:9
Frame rate : 23.976 fps
Color space : YUV
Chroma subsampling : 4:2:0
Bit depth : 8 bits
Scan type : Progressive
Bits/(Pixel*Frame) : 0.154
Stream size : 525 MiB (88%)
Title : Video
Language : English
Default : Yes
Forced : Yes
Color primaries : BT.709-5, BT.1361, IEC 61966-2-4, SMPTE RP177
Transfer characteristics : BT.709-5, BT.1361
Matrix coefficients : BT.709-5, BT.1361, IEC 61966-2-4 709, SMPTE RP177

Audio
ID : 2
Format : AC-3
Format/Info : Audio Coding 3
Mode extension : CM (complete main)
Format settings, Endianness : Big
Codec ID : A_AC3
Duration : 21mn 29s
Bit rate mode : Constant
Bit rate : 384 Kbps
Channel(s) : 6 channels
Channel positions : Front: L C R, Side: L R, LFE
Sampling rate : 48.0 KHz
Bit depth : 16 bits
Compression mode : Lossy
Stream size : 59.0 MiB (10%)
Title : English 5.1
Language : English
Default : Yes
Forced : Yes
[ www.Speed.Cd ] - The.Big.Bang.Theory.S06E07.The.Habitation.Configuration.720p.WEB-DL.DD5.1.H.264/The.Big.Bang.Theory.S06E07.The.Habitation.Configuration.720p.WEB-DL.DD5.1.H.264.mkv 624.492 MB
[ www.Speed.Cd ] - The.Big.Bang.Theory.S06E07.The.Habitation.Configuration.720p.WEB-DL.DD5.1.H.264/The.Big.Bang.Theory.S06E07.The.Habitation.Configuration.720p.WEB-DL.DD5.1.H.264.nfo 1.146 KB
[ www.Speed.Cd ] - The.Big.Bang.Theory.S06E07.The.Habitation.Configuration.720p.WEB-DL.DD5.1.H.264/www.Speed.Cd read me .txt 47 B
Gathering some info...

Register and log in Isohunt and see no captcha anymore!

4000 symbols left
Hash a4fe9d7c2e2558211ca635fcfd05d7132ae8b6da

Related torrents for "The Big Bang Theory S06E07 The Habitation Configuration 720p WEB"

Torrent search:

season 06 episode 07 hd