Badder Santa-Unrated (2003) DVDRip.x264 {Worldwide7477} torrent

Size 800.48 MB   17 seeders     Added 2012-11-11 06:00:30

Stream torrent
Starting‥ You need BitLord! Get it from BitLord.com
To download or stream you need BitLord. Visit them at BitLord.com
[center][i][b][IMG]image[/IMG]
[IMG]image[/IMG] [IMG]image[/IMG]
[IMG]image[/IMG]
[color=red]Badder Santa (2003)[/color]
Format : MPEG-4
Format profile : Base Media / Version 2
Codec ID : mp42
File size : 749 MiB
Duration : 1h 39mn
Overall bit rate mode : Variable
Overall bit rate : 1 055 Kbps
Encoded date : UTC 2012-11-10 17:20:49
Tagged date : UTC 2012-11-10 18:05:58
Writing application : HandBrake 0.9.8 2012071700
Video
ID : 1
Format : AVC
Format/Info : Advanced Video Codec
Format profile : Main@L3.0
Format settings, CABAC : Yes
Format settings, ReFrames : 4 frames
Codec ID : avc1
Codec ID/Info : Advanced Video Coding
Duration : 1h 39mn
Bit rate mode : Variable
Bit rate : 889 Kbps
Width : 720 pixels
Height : 470 pixels
Display aspect ratio : 16:9
Original display aspect ratio : 16:9
Frame rate mode : Variable
Frame rate : 23.976 fps
Minimum frame rate : 19.982 fps
Maximum frame rate : 29.970 fps
Color space : YUV
Chroma subsampling : 4:2:0
Bit depth : 8 bits
Scan type : Progressive
Bits/(Pixel*Frame) : 0.110
Stream size : 631 MiB (84%)
Writing library : x264 core 120
Encoded date : UTC 2012-11-10 17:20:49
Tagged date : UTC 2012-11-10 18:05:58
Color primaries : BT.601 NTSC
Transfer characteristics : BT.709
Matrix coefficients : BT.601
[IMG]image[/IMG]
[IMG]image[/IMG]
[color=blue]Click Below For IMDB INFO[/color]
[IMG]image[/IMG]
[url="http://www.imdb.com/title/tt0307987/"][IMG]image[/IMG][/url]
Audio
ID : 2
Format : AAC
Format/Info : Advanced Audio Codec
Format profile : LC
Codec ID : 40
Duration : 1h 39mn
Bit rate mode : Variable
Bit rate : 160 Kbps
Maximum bit rate : 198 Kbps
Channel(s) : 2 channels
Channel positions : Front: L R
Sampling rate : 48.0 KHz
Compression mode : Lossy
Delay relative to video : 67ms
Stream size : 113 MiB (15%)
Encoded date : UTC 2012-11-10 17:20:49
Tagged date : UTC 2012-11-10 18:05:58
[IMG]image[/IMG]
[IMG]image[/IMG]
[IMG]image[/IMG]
[color=red]Don't Take It If You Can't Give Back
Click my name add your review and rate thanks enjoy!![/color]
[IMG]image[/IMG] [IMG]image[/IMG] [IMG]image[/IMG]
Badder Santa Unrated (2003) Movie Info.txt 5.385 KB
Badder Santa Unrated (2003).mp4 785.018 MB
Badder Santa Unrated (2003)_sample.mp4 15.456 MB
Gathering some info...

Register and log in Isohunt and see no captcha anymore!

4000 symbols left
Hash BAC3197EB0F1A90314251A5F5F61329D9FD55CDE