imdb
rating

7.8
Skyfall

Skyfall (2012)

Action, Adventure, Thriller

Full description

Skyfall 2012 Cam Part Cropped XviD Feel-Free

Size 1.489 GB   3 seeders     Added 2012-11-11 09:40:53

Stream torrent
Starting‥ You need BitLord! Get it from 1BitLord.com
To download or stream you need BitLord. Visit them at BitLord.com
[b]COVER:[/b]

[URL=http://imgchili.com/show/20421/20421837_ovshq9n1kzeahnu70cup.jpg][IMG]image[/IMG][/URL] 

[b]INFO:[/b]
Genre:Action | Adventure | Crime
Language:English
IMDb:http://uk.imdb.com/title/tt1074638/
Source:RemixCAM Thanks
Encoder:Tony
Format: AVI
Format/Info: Audio Video Interleave
File size: 1.39 GiB
Duration: 2h 18mn
Overall bit rate: 1 433 Kbps
Writing application: VirtualDubMod 1.5.10.2 (build 2540/release)
Writing library: VirtualDub build 32817/release
Video
ID: 0
Format: MPEG-4 Visual
Format profile: Simple@L5
Format settings, BVOP: No
Format settings, QPel: No
Format settings, GMC: No warppoints
Format settings, Matrix: Default (H.263)
Codec ID: XVID
Codec ID/Hint: XviD
Duration: 2h 18mn
Bit rate: 1 295 Kbps
Width: 640 pixels
Height: 248 pixels
Display aspect ratio: 2.581
Frame rate: 25.000 fps
Color space: YUV
Chroma subsampling: 4:2:0
Bit depth: 8 bits
Scan type: Progressive
Compression mode: Lossy
Bits/(Pixel*Frame): 0.326
Stream size: 1.25 GiB (90%)
Writing library: XviD 64
Audio
ID: 1
Format: MPEG Audio
Format version: Version 1
Format profile: Layer 3
Codec ID: 55
Codec ID/Hint: MP3
Duration: 2h 18mn
Bit rate mode: Constant
Bit rate: 128 Kbps
Channel(s): 2 channels
Sampling rate: 44.1 KHz
Compression mode: Lossy
Stream size: 127 MiB (9%)
Alignment: Split accross interleaves
Interleave, duration: 40 ms (1.00 video frame)
Interleave, preload duration: 500 ms 

[b]SCREENS:[/b]

[url=http://imgchili.com/show/20421/20421833_myczvn0u.png][img]image[/img][/url] [url=http://imgchili.com/show/20421/20421832_jtozpfuk.png][img]image[/img][/url] [url=http://imgchili.com/show/20421/20421831_66dwazuh.png][img]image[/img][/url] [url=http://imgchili.com/show/20421/20421830_tkvmwxu2.png][img]image[/img][/url] 
Skyfall 2012 Cam Part Cropped XviD Feel-Free.avi 1.488 GB
Skyfall 2012 Cam Part Cropped XviD Feel-Free.nfo 3.554 KB
vlcsnap-2012-11-10-20h58m36s73.png 251.216 KB
Gathering some info...

Register and log in Isohunt and see no captcha anymore!

4000 symbols left
Hash 7EC7B838DA34B122B4BAB0E999FA403F924AD1B0

Related torrents for "Skyfall 2012 Cam Part Cropped XviD Feel-Free"

Torrent search:

cam 2012