imdb
rating

7.4
Lincoln

Lincoln (2012)

Drama, War

Full description

Lincoln 2012 DVDRip XviD Lum1x

Size 745.066 MB   0 seeders     Added 2012-11-11 14:26:59

Stream torrent
Starting‥ You need BitLord! Get it from 1BitLord.com
To download or stream you need BitLord. Visit them at BitLord.com
\r\n\r\n\r\n\r\n\r\nFormat                           : MPEG-4                      \r\n         Format profile                   : Base Media                  \r\n         Codec ID                         : isom                        \r\n         File size                        : 572 MiB                     \r\n         Duration                         : 1h 31mn                     \r\n         Overall bit rate                 : 875 Kbps                    \r\n                                                                        \r\n         Video                                                          \r\n         ID                               : 1                           \r\n         Format                           : AVC                         \r\n         Format/Info                      : Advanced Video Codec        \r\n         Format profile                   : High@L3.0                   \r\n         Format settings, CABAC           : Yes                         \r\n         Format settings, ReFrames        : 4 frames                    \r\n         Codec ID                         : avc1                        \r\n         Codec ID/Info                    : Advanced Video Coding       \r\n         Duration                         : 1h 31mn                     \r\n         Bit rate                         : 677 Kbps                    \r\n         Width                            : 720 pixels                  \r\n         Height                           : 336 pixels                  \r\n         Display aspect ratio             : 2.2:1                       \r\n         Frame rate mode                  : Constant                    \r\n         Frame rate                       : 24.000 fps                  \r\n         Color space                      : YUV                         \r\n         Chroma subsampling               : 4:2:0                       \r\n         Bit depth                        : 8 bits                      \r\n         Scan type                        : Progressive                 \r\n         Bits/(Pixel*Frame)               : 0.117                       \r\n         Stream size                      : 442 MiB (77%)               \r\n         Writing library                  : x264 core 112               \r\n                                                                        \r\n         Audio                                                          \r\n         ID                               : 2                           \r\n         Format                           : AAC                         \r\n         Format/Info                      : Advanced Audio Codec        \r\n         Format profile                   : LC                          \r\n         Codec ID                         : 40                          \r\n         Duration                         : 1h 31mn                     \r\n         Bit rate mode                    : Constant                    \r\n         Bit rate                         : 192 Kbps                    \r\n         Channel(s)                       : 6 channels                  \r\n         Sampling rate                    : 48.0 KHz                    \r\n         Compression mode                 : Lossy                       \r\n         Stream size                      : 126 MiB (22%)               \r\n         Language                         : English                   \r\n\r\n\r\n\r\n\r\n\r\n
Lincoln 2012 DVDRip XviD Lum1x/info.nfo 5.215 KB
Lincoln 2012 DVDRip XviD Lum1x/Lincoln 2012 DVDRip XviD Lum1x.wmv 744.989 MB
Lincoln 2012 DVDRip XviD Lum1x/READ this before playing the Video.txt 5.215 KB
Gathering some info...

Register and log in Isohunt and see no captcha anymore!

4000 symbols left
Hash aeed96cb15d253a4c7ae93e2731c6600cb1cfb35

Related torrents for "Lincoln 2012 DVDRip XviD Lum1x"

Torrent search:

dvdrip 2012