imdb
rating

7.4
Ancient Aliens

Ancient Aliens (2010)

Documentary, Mystery

Full description

Ancient Aliens S03E03 480p HDTV x264 Kosmici i Święte Miejsca [Lektor PL IVO]

Size 360.016 MB   0 seeders     Added 2012-11-11 22:40:55

Stream torrent
Starting‥ You need BitLord! Get it from 1BitLord.com
To download or stream you need BitLord. Visit them at BitLord.com
Tytuł: ..:: Ancient Aliens ::..

Produkcja: USA
Gatunek: Dokumentalny
Data premiery: 2009
Reżyseria: Kevin Burns, David Silver
Muzyka: Randy Jones
Czas trwania odcinka: 44 min.
http://www.filmweb.pl/serial/Ancient+Aliens-2009-514696#

O B S A D A:

Robert Clotworthy, Jonathan Young, Mike Bara, William J. Birnes, Linda Moulton Howe, George Noory, Giorgio Tsoukalos, Franklin Ruehl, Erich von Däniken, Michael Cremo.

O P I S:

Czy możliwe jest, że inteligentne formy życia odwiedziły Ziemię tysiące lat temu, przynosząc ze sobą technologie, które znacznie wpłynęły na przebieg historii i rozwój człowieka? Przedstawione w bestsellerowej książce z 1968 roku "Chariots of the Gods", napisanej przez Ericha von Dänikena, teoria pozaziemskiej ingerencji w naszą cywilizację już w starożytności - wstrząsnęły ludźmi wierzących w indywidualny postęp ludzkości. Starożytne rysunki w jaskiniach przedstawiające dziwne stworzenia, pozostałości po pasach startowych w Peru, indyjskie teksty, które opisują "latające maszyny bogów" to tylko kilka z archeologicznych artefaktów wskazane przez von Dänikena i powołane jako dowody, że starożytni astronauci byli dobrze znani naszym przodkom. Produkcja z ekskluzywną kooperacją von Dänikena, wprowadza zupełnie nowe dowody w dotychczasowe teorie i odkrycia, i skupia się także na dzisiejszych odkryciach z ostatnich 30 lat, w tym niezwykłe wyniki o DNA człowieka, rozwoju i nowo dekodowanych artefaktach z Egiptu, Syrii i Ameryki Południowej. 



Lektor: IVO
Format : Matroska
Format version : Version 2
File size : 340 MiB
Duration : 43mn 59s
Overall bit rate : 1 081 Kbps
Writing application : Lavf52.94.0
Writing library : Lavf52.94.0

Video
ID : 1
Format : AVC
Format/Info : Advanced Video Codec
Format profile : Main@L3.0
Format settings, CABAC : Yes
Format settings, ReFrames : 2 frames
Codec ID : V_MPEG4/ISO/AVC
Duration : 43mn 59s
Bit rate : 950 Kbps
Width : 852 pixels
Height : 480 pixels
Display aspect ratio : 16:9
Frame rate mode : Variable
Frame rate : 23.976 fps
Color space : YUV
Chroma subsampling : 4:2:0
Bit depth : 8 bits
Scan type : Progressive
Bits/(Pixel*Frame) : 0.097
Stream size : 293 MiB (86%)
Writing library : x264 core 112 r1834 a51816a
Encoding settings : cabac=1 / ref=1 / deblock=1:0:0 / analyse=0x1:0 / me=dia / subme=2 / psy=1 / psy_rd=0,00:0,00 / mixed_ref=0 / me_range=16 / chroma_me=1 / trellis=0 / 8x8dct=0 / cqm=0 / deadzone=21,11 / fast_pskip=1 / chroma_qp_offset=0 / threads=4 / sliced_threads=0 / nr=0 / decimate=1 / interlaced=0 / constrained_intra=0 / bframes=3 / b_pyramid=0 / b_adapt=1 / b_bias=0 / direct=3 / weightb=0 / open_gop=0 / weightp=2 / keyint=250 / keyint_min=25 / scenecut=40 / intra_refresh=0 / rc_lookahead=40 / rc=abr / mbtree=1 / bitrate=950 / ratetol=1,0 / qcomp=0,50 / qpmin=10 / qpmax=51 / qpstep=4 / ip_ratio=1,25 / aq=1:1,00
Default : Yes
Forced : No

Audio
ID : 2
Format : AC-3
Format/Info : Audio Coding 3
Mode extension : CM (complete main)
Format settings, Endianness : Big
Codec ID : A_AC3
Duration : 43mn 59s
Bit rate mode : Constant
Bit rate : 128 Kbps
Channel(s) : 2 channels
Channel positions : Front: L R
Sampling rate : 44.1 KHz
Bit depth : 16 bits
Compression mode : Lossy
Stream size : 40.3 MiB (12%)
Default : Yes
Forced : No
Ancient Aliens S03E03 480p HDTV x264 Kosmici i Święte Miejsca (Lektor PL IVO).mkv 360.016 MB
Gathering some info...

Register and log in Isohunt and see no captcha anymore!

4000 symbols left
Hash C19FB68E40D10423AEBEDF8A165E0E96B0426702

Related torrents for "Ancient Aliens S03E03 480p HDTV x264 Kosmici i Święte Miejsca [Lektor PL IVO]"

Torrent search:

season 03 x264 hdtv episode 03