imdb
rating

5.4
The Man with the Iron Fists

The Man with the Iron Fists (2012)

Action

Full description

The Man with the Iron Fists 2012 CAM XviD - MATiNE

Size 1.254 GB   33 seeders     Added 2012-11-12 02:21:12

Stream torrent
Starting‥ You need BitLord! Get it from BitLord.com
To download or stream you need BitLord. Visit them at BitLord.com
[img]image[/img]

Info:
Format : AVI
Format/Info : Audio Video Interleave
File size : 1.16 GiB
Duration : 1h 29mn
Overall bit rate : 1 858 Kbps

Video
ID : 0
Format : MPEG-4 Visual
Format profile : Advanced Simple@L5
Format settings, BVOP : 2
Format settings, QPel : No
Format settings, GMC : No warppoints
Format settings, Matrix : Default (H.263)
Codec ID : XVID
Codec ID/Hint : XviD
Duration : 1h 29mn
Bit rate : 1 718 Kbps
Width : 720 pixels
Height : 340 pixels
Display aspect ratio : 2.118
Frame rate : 23.976 fps
Color space : YUV
Chroma subsampling : 4:2:0
Bit depth : 8 bits
Scan type : Progressive
Compression mode : Lossy
Bits/(Pixel*Frame) : 0.293
Stream size : 1.07 GiB (92%)
Writing library : XviD 64

Audio
ID : 1
Format : MPEG Audio
Format version : Version 1
Format profile : Layer 3
Mode : Joint stereo
Mode extension : MS Stereo
Codec ID : 55
Codec ID/Hint : MP3
Duration : 1h 29mn
Source duration : 1h 29mn
Bit rate mode : Constant
Bit rate : 128 Kbps
Channel(s) : 2 channels
Sampling rate : 44.1 KHz
Compression mode : Lossy
Stream size : 81.5 MiB (7%)
Alignment : Aligned on interleaves
Interleave, duration : 26 ms (0.63 video frame)
Writing library : LAME3.99r
Encoding settings : -m j -V 4 -q 2 -lowpass 17 -b 128 



Screens:
[img]image[/img]
[img]image[/img]
[img]image[/img]
[img]image[/img]
readme.txt 56 B
sample.avi 13.539 MB
The Man with the Iron Fists 2012 CAM XviD - MATiNE.avi 1.241 GB
Gathering some info...

Register and log in Isohunt and see no captcha anymore!

4000 symbols left
Hash 2F52A5AAA8F50090A4627C2564DD819619F10B30

Related torrents for "The Man with the Iron Fists 2012 CAM XviD - MATiNE"

Torrent search:

cam 2012