The Twilight Saga Breaking Dawn-Part 2 2012 BRRIP X264 AC3 CrEwSaDe

Size 783.092 MB   0 seeders     Added 2012-11-12 05:38:30

To download or stream you need BitLord. Visit them at BitLord.com
Encoder ..........: XtC42\r\nVideo Codec.......: AVC\r\nVideo Bitrate.....: 703 Kbps                            \r\nAudio Codec.......: AC3                              \r\nAudio Bitrate.....: 128 Kbps                          \r\nResolution........: 720X304\r\nRuntime...........: 1h 57mn                            \r\nRelease Date......: 2012\r\nTheatre Date......: n/a\r\nLanguage..........: English\r\n\r\n\r\nGeneral\r\nFormat                                   : Matroska\r\nFormat version                        : Version 2\r\nFile size                                  : 698 MiB\r\nDuration                                 : 1h 57mn\r\nOverall bit rate                        : 833 Kbps\r\nWriting application                   : mkvmerge v4.9.1\r\nWriting library                         : libebml v1.2.1 + libmatroska v1.1.1\r\n\r\nVideo\r\nID                                       : 1\r\nFormat                                 : AVC\r\nFormat/Info                          : Advanced Video Codec\r\nFormat profile                           : High@L3.0\r\nFormat settings, CABAC                   : Yes\r\nFormat settings, ReFrames               : 4 frames\r\nCodec ID                                 : V_MPEG4/ISO/AVC\r\nDuration                                  : 1h 57mn\r\nBit rate                                    : 703 Kbps\r\nWidth                                      : 720 pixels\r\nHeight                                     : 304 pixels\r\nDisplay aspect ratio                   : 2.35:1\r\nFrame rate                               : 23.976 fps\r\nColor space                              : YUV\r\nChroma subsampling                 : 4:2:0\r\nBit depth                                  : 8 bits\r\nScan type                                 : Progressive\r\nBits/(Pixel*Frame)                     : 0.134\r\nStream size                               : 576 MiB (83%)\r\nWriting library                            : x264 core 116 r2074 2641b9e\r\n\r\nAudio\r\nID                                             : 2\r\nFormat                                      : AC-3\r\nFormat/Info                               : Audio Coding 3\r\nMode extension                          : CM (complete main)\r\nCodec ID                                   : A_AC3\r\nDuration                                    : 1h 57mn\r\nBit rate mode                            : Constant\r\nBit rate                                     : 128 Kbps\r\nChannel(s)                               : 6 channels\r\nChannel positions                     : Front: L C R, Side: L R, LFE\r\nSampling rate                           : 48.0 KHz\r\nBit depth                                  : 16 bits\r\nCompression mode                    : Lossy\r\nStream size                              : 107 MiB (15%)\r\n\r\n\r\n\r\nPlot: After the birth of Renesmee, the Cullens gather other vampire clans in order to protect the child from a false allegation that puts the family in front of the Volturi.\r\n
The Twilight Saga Breaking Dawn-Part 2.2012.BRRIP.X264..AC3.CrEwSaDe/DVD Disc Cover COPY.jpg 102.157 KB
The Twilight Saga Breaking Dawn-Part 2.2012.BRRIP.X264..AC3.CrEwSaDe/NFO.nfo 2.939 KB
The Twilight Saga Breaking Dawn-Part 2.2012.BRRIP.X264..AC3.CrEwSaDe/The Twilight Saga Breaking Dawn-Part 2.2012.BRRIP.X264..AC3.CrEwSaDe.rar 782.987 MB
Gathering some info...

Register and log in Isohunt and see no captcha anymore!

4000 symbols left
Hash 403aedd0e96bf13ade679657504ffddeef38e2ee

Related torrents for "The Twilight Saga Breaking Dawn-Part 2 2012 BRRIP X264 AC3 CrEwSaDe"

Torrent search:

2012