imdb
rating

6.7
Kirikou et les hommes et les femmes

Kirikou et les hommes et les femmes (2012)

Adventure, Animation, Family

Full description
quality   telesync dvdrip dvd bd x264 hd

Kirikou et les hommes et les femmes (2012) FRENCH DVDRip XviD - 3PsiLoN

Size 734.303 MB   0 seeders     Added 2012-11-12 16:08:57

Stream torrent
Starting‥ You need BitLord! Get it from 1BitLord.com
To download or stream you need BitLord. Visit them at BitLord.com
\r\nKirikou et les hommes et les femmes (2012) FRENCH DVDRip XviD - 3PsiLoN\r\n\r\nSTATS:\r\n\r\nVideo\r\nID                               : 0\r\nFormat                           : MPEG-4 Visual\r\nFormat profile                   : Advanced Simple@L5\r\nFormat settings, BVOP            : 2\r\nFormat settings, QPel            : No\r\nFormat settings, GMC             : No warppoints\r\nFormat settings, Matrix          : Default (MPEG)\r\nMuxing mode                      : Packed bitstream\r\nCodec ID                         : XVID\r\nCodec ID/Hint                    : XviD\r\nDuration                         : 1h 28mn\r\nBit rate                         : 986 Kbps\r\nWidth                            : 720 pixels\r\nHeight                           : 320 pixels\r\nDisplay aspect ratio             : 2.25:1\r\nFrame rate                       : 29.970 fps\r\nColor space                      : YUV\r\nChroma subsampling               : 4:2:0\r\nBit depth                        : 8 bits\r\nScan type                        : Progressive\r\nCompression mode                 : Lossy\r\nBits/(Pixel*Frame)               : 0.243\r\nStream size                      : 700 MiB (92%)\r\nWriting library                  : XviD 64\r\n\r\nAudio\r\n\r\nFormat                           : MPEG Audio\r\nFormat version                   : Version 1\r\nFormat profile                   : Layer 3\r\nMode                             : Joint stereo\r\nMode extension                   : MS Stereo\r\nCodec ID                         : 55\r\nCodec ID/Hint                    : MP3\r\nDuration                         : 1h 28mn\r\nBit rate mode                    : Constant\r\nBit rate                         : 128 Kbps\r\nChannel(s)                       : 2 channels\r\nSampling rate                    : 48.0 KHz\r\nCompression mode                 : Lossy\r\nStream size                      : 51 MiB (7%)\r\nAlignment                        : Split accross interleaves\r\nInterleave, duration             : 33 ms (1.00 video frame)\r\nInterleave, preload duration     : 500 ms\r\n       \r\n
Kirikou et les hommes et les femmes (2012) FRENCH DVDRip XviD - 3PsiLoN/cover.jpg 44.279 KB
Kirikou et les hommes et les femmes (2012) FRENCH DVDRip XviD - 3PsiLoN/Kirikou et les hommes et les femmes (2012) FRENCH DVDRip XviD - 3PsiLoN.nfo 1.989 KB
Kirikou et les hommes et les femmes (2012) FRENCH DVDRip XviD - 3PsiLoN/Kirikou et les hommes et les femmes (2012) FRENCH DVDRip XviD - 3PsiLoN/Kirikou et les hommes et les femmes (2012) FRENCH DVDRip XviD - 3PsiLoN.rar 733.426 MB
Gathering some info...

Register and log in Isohunt and see no captcha anymore!

4000 symbols left
Hash d6e56a67693c77e04d0cc7e60337ccba73c976d3

Related torrents for "Kirikou et les hommes et les femmes (2012) FRENCH DVDRip XviD - 3PsiLoN"

Torrent search:

dvdrip french 2012