Apur Sansar (1959) - 1CD - DVDRip - [Xvid-MP3]~ 692 MB - E.Sub

Size 743.393 MB   3 seeders     Added 2012-11-12 20:20:42

Stream torrent
Starting‥ You need BitLord! Get it from BitLord.com
To download or stream you need BitLord. Visit them at BitLord.com
[CENTER][SIZE=5][COLOR="#ff33cc"]Apur Sansar (1959) - 1CD - DVDRip - [Xvid-MP3]~ 692 MB - E.Sub [/COLOR][/SIZE]

[IMG]image[/IMG] 
[IMG]image[/IMG]

[SIZE=5][CENTER][COLOR="#666600"]
Genres: Drama
Release date(s) 1st May, 1959
[IMG]image[/IMG]http://www.imdb.com/title/tt0052572/[/COLOR][/CENTER][/SIZE]
[SIZE=4][COLOR="#996600"]
Apur Sansar is the third and final film of the The Apu Trilogy. Apu (Soumitra Chatterjee) is now a graduate and without a job. He lives in a rented room next to a busy railway yard. He finds himself among a large population of the unemployed youth in the city. To pay his rent, he has to sell his books. The job search turns out to be an amusing and a tormenting experience. 

Unfazed, He is writing a novel based on his life, which he hopes will make him famous. His life takes a turn, however, when he meets his old friend Pulu. He coerces Apu to travel to his ancestral village to attend the wedding of his cousin, Aparna (Sharmila Tagore). On the boat ride to the village Pulu reads Apu's manuscript and appreciates the work. 

On the day of the wedding, the bridegroom turns out to be mentally deranged and the wedding is canceled. The villagers believe if she is not married before the auspicious hour passes, the ill-fated bride can never be married again. Apu primarily of out sympathy for the bride and some convincing by Pulu, agrees to be the substitute groom. He has not even seen her yet.

The marriage takes place and Apu and his young wife return to his Calcutta apartment. Soon, a warm and caring relationship develops. Apu willingly takes up the clerical job that he has so far avoided. The marital bliss, however, is short lived. 

Pregnant, she goes to her parents' place and dies during the childbirth. Apu's world shatters as he receives the news of Aparna's death. Sunken in grief, he refuses to even see the child whom he holds responsible for his wife's death. He leaves Calcutta to lead the life of a wanderer.

About five years pass, Apu's friend Pulu, who had been abroad, is shocked to find the child growing wild and not cared for. Pulu goes in search of Apu and requests to take responsibility for his son, Kajal. 

Reluctantly, Apu comes back to the village. On seeing Kajal, Apu is overwhelmed by affection. Now it is the child who refuses to accept him as his father. Apu wins over the little boy. The child accepts him as a friend, though not as a father yet. United, they leave for Calcutta to make a new beginning.[/COLOR][/SIZE]
[SIZE=6][COLOR="#006400"]
Awards[/COLOR][/SIZE]
[SIZE=4][COLOR="#cc3300"]National Film Awards (India)
Winner – 1959 – President's Gold Medal for the All India Best Feature Film[2]
British Film Institute Awards (London Film Festival)
Winner – 1960 – Sutherland Award for Best Original And Imaginative Film
14th Edinburgh International Film Festival
Winner – 1960 – Diploma Of Merit
National Board of Review Awards (United States)
Winner – 1960 – Best Foreign Film [1]
British Academy Film Awards (United Kingdom)
Nominated – 1962 – BAFTA Award for Best Film[/COLOR][/SIZE]

[IMG]image[/IMG]
[SIZE=5][COLOR="#990000"]Soumitra Chatterjee as Apu (Apurba Kumar Roy)
Sharmila Tagore as Aparna, Apu's wife
Swapan Mukherjee as Pulu
Alok Chakravarty as Kajal
Sefalika Devi as Pulu's wife
Dhiresh Majumdar as Sasinarayan
Dhiren Ghosh as the landlord[/COLOR][/SIZE]
[IMG]image[/IMG]

 General
 Format : AVI
 Format/Info : Audio Video Interleave
 File size : 694 MiB
 Duration : 1h 38mn
 Overall bit rate : 985 Kbps
 Video #0
 ID : 0
 Format : MPEG-4 Visual
 Format profile : Advanced Simple@L5
 Format settings, BVOP : 2
 Format settings, QPel : No
 Format settings, GMC : No warppoints
 Format settings, Matrix : Default (H.263)
 Codec ID : XVID
 Codec ID/Hint : XviD
 Duration : 1h 38mn
 Bit rate : 899 Kbps
 Width : 640 pixels
 Height : 480 pixels
 Display aspect ratio : 4:3
 Frame rate : 25.000 fps
 Color space : YUV
 Chroma subsampling : 4:2:0
 Bit depth : 8 bits
 Scan type : Progressive
 Compression mode : Lossy
 Bits/(Pixel*Frame) : 0.117
 Stream size : 634 MiB (91%)
 [IMG]image[/IMG]
 Audio #1
 ID : 1
 Format : MPEG Audio
 Format version : Version 1
 Format profile : Layer 3
 Mode : Joint stereo
 Mode extension : MS Stereo
 Codec ID : 55
 Codec ID/Hint : MP3
 Duration : 1h 38mn
 Bit rate mode : Constant
 Bit rate : 80.0 Kbps
 Channel(s) : 2 channels
 Sampling rate : 32.0 KHz
 Compression mode : Lossy
 Stream size : 56.4 MiB (8%)
 [IMG]image[/IMG]
[IMG]image[/IMG]
[IMG]image[/IMG]
[IMG]image[/IMG]
[IMG]image[/IMG]
[IMG]image[/IMG]
[IMG]image[/IMG]
[IMG]image[/IMG]
[IMG]image[/IMG]
[IMG]image[/IMG]
[IMG]image[/IMG]
[IMG]image[/IMG]
[IMG]image[/IMG]
[IMG]image[/IMG]
[url=http://www.sendspace.com/file/2745tk][SIZE="6"]Sample[/SIZE][/url]

[RIGHT][SIZE=5][COLOR=#2e8b57]seeding 24x7 at 100 mbps+[/COLOR][/SIZE][/RIGHT]

[SIZE=4][B][COLOR=#8b0000]Need reseeding on any of my torrents , just start leeching and PM me..[/COLOR][/B][/SIZE]

[URL=http://www.facebook.com/pages/Hunter/172061499591085][img]image[/img][/url]

[/CENTER]
Apur Sansar (1959) - 1CD - DVDRip - [Xvid-MP3]~ 692 MB - E.Sub.avi 727.915 MB
Sample.avi 9.855 MB
ScreenShoots/1.png 250.43 KB
Gathering some info...

Register and log in Isohunt and see no captcha anymore!

4000 symbols left
Hash 473DFB9C12859E6522612E67E1ADF01FA6243DCA