Bhooter Bhobishyot 2012 DVDRip Bengali Movie EngSub [PUNJABIWALA]

Size 805.006 MB   25 seeders     Added 2012-11-12 23:00:32

Stream torrent
Starting‥ You need BitLord! Get it from BitLord.com
To download or stream you need BitLord. Visit them at BitLord.com
[img]image[/img]

[b]Cover:[/b]

[img]image[/img]

[b]Release Info:[/b]

[code]General

Format : MPEG-4
Format profile : Base Media
Codec ID : isom
File size : 768 MiB
Duration : 1h 59mn
Overall bit rate : 901 Kbps


Video
ID : 2
Format : AVC
Format/Info : Advanced Video Codec
Format profile : Baseline@L3.0
Format settings, CABAC : No
Format settings, ReFrames : 1 frame
Muxing mode : Container profile=Baseline@4.1
Codec ID : avc1
Codec ID/Info : Advanced Video Coding
Duration : 1h 59mn
Bit rate : 822 Kbps
Width : 720 pixels
Height : 404 pixels
Display aspect ratio : 16:9
Frame rate mode : Constant
Frame rate : 29.970 fps
Original frame rate : 29.000 fps
Color space : YUV
Chroma subsampling : 4:2:0
Bit depth : 8 bits
Scan type : Progressive
Bits/(Pixel*Frame) : 0.094
Stream size : 701 MiB (91%)

Audio
ID : 1
Format : AAC
Format/Info : Advanced Audio Codec
Format profile : LC
Codec ID : 40
Duration : 1h 59mn
Bit rate mode : Constant
Bit rate : 72.0 Kbps
Channel(s) : 2 channels
Channel positions : Front: L R
Sampling rate : 48.0 KHz
Compression mode : Lossy
Stream size : 61.5 MiB (8%)

Source:
credit to original movie ripper PUNJABIWALA (Thanks)[/code]

[b]IMDB Info:[/b]

[code]A rib-tickling comedy about a group of spirits who, in their various idiosyncrasies, try and save their only haunt, their resting place, when some unscrupulous builders try and break it down to build a modern monstrosity.

Director: Anik Dutta
Writers: Anik Dutta (dialogue), Anik Dutta (screenplay), 
Stars: Swastika Mukherjee, Parambrata Chatterjee and Sabyasachi Chakraborty

Genres: Fantasy
 
http://www.imdb.com/title/tt2351177/
[/code]

[b]Screen Shot:[/b]

[img]image[/img]
[img]image[/img]
[img]image[/img]
[img]image[/img]
[img]image[/img]
[img]image[/img]
[img]image[/img]
[img]image[/img]
[img]image[/img]
[img]image[/img]
[img]image[/img]
Bhooter Bhobishyot 2012 DVDRip Bengali Movie EngSub [PUNJABIWALA].mp4 805.006 MB
Torrent Downloaded From Digtorrent.org.txt 346 B
Torrent downloaded from souravfile torrents on BTScene.eu.txt 69 B
Gathering some info...

Register and log in Isohunt and see no captcha anymore!

4000 symbols left
Hash 09D9B42E73E405920B8FD8AA6D8823225DB8AE7B