imdb
rating

7.3
Flight

Flight (2012)

Drama

Full description

Flight 2012 DVDRip XviD - RiSES

Size 745.15 MB   0 seeders     Added 2012-11-13 08:09:51

Stream torrent
Starting‥ You need BitLord! Get it from BitLord.com
To download or stream you need BitLord. Visit them at BitLord.com
\r\n\r\n\r\nVideo\r\nID                                       : 0\r\nFormat profile                           : Advanced Simple@L5\r\nFormat settings, BVOP                    : 2\r\nFormat settings, QPel                    : No\r\nFormat settings, GMC                     : No warppoints\r\nFormat settings, Matrix                  : Default (H.263)\r\nCodec ID                                 : XVID\r\nCodec ID/Hint                            : XviD\r\nDuration                                 : 1h 42mn\r\nBit rate                                 : 819 Kbps\r\nWidth                                    : 624 pixels\r\nHeight                                   : 352 pixels\r\nDisplay aspect ratio                     : 16:9\r\nFrame rate                               : 25.000 fps\r\nColor space                              : YUV\r\nChroma subsampling                       : 4:2:0\r\nBit depth                                : 8 bits\r\nScan type                                : Progressive\r\nCompression mode                         : Lossy\r\nBits/(Pixel*Frame)                       : 0.149\r\nStream size                              : 600 MiB (85%)\r\nWriting library                          : XviD 64\r\n\r\nAudio\r\nID                                       : 1\r\nFormat                                   : MPEG Audio\r\nFormat version                           : Version 1\r\nFormat profile                           : Layer 3\r\nMode                                     : Joint stereo\r\nMode extension                           : MS Stereo\r\nCodec ID                                 : 55\r\nCodec ID/Hint                            : MP3\r\nDuration                                 : 1h 42mn\r\nBit rate mode                            : Variable\r\nBit rate                                 : 128 Kbps\r\nChannel(s)                               : 2 channels\r\nSampling rate                            : 48.0 KHz\r\nCompression mode                         : Lossy\r\nStream size                              : 92.9 MiB (13%)\r\nAlignment                                : Aligned on interleaves\r\nInterleave, duration                     : 24 ms (0.60 video frame)\r\nInterleave, preload duration             : 127 ms\r\nWriting library                          : LAME3.98.4\r\n\r\n\r\n
Flight 2012 DVDRip XviD - RiSES/subtitles/English/subtitles.srt 47.548 KB
Flight 2012 DVDRip XviD - RiSES/subtitles/NL/subtitles.srt 71.182 KB
Flight 2012 DVDRip XviD - RiSES/subtitles/Polish/subtitles.srt 31.875 KB
Gathering some info...

Register and log in Isohunt and see no captcha anymore!

4000 symbols left
Hash 0b383656393ea5f2aaa6ba5d906bdad96d1c4dad

Related torrents for "Flight 2012 DVDRip XviD - RiSES"

Torrent search:

dvdrip 2012