imdb
rating

8.2
Criminal Minds

Criminal Minds (2005)

Crime, Drama, Mystery

Full description

Criminal Minds S08E06 720p WEB-DL DD5 1 H264-NFHD

Size 1.436 GB   0 seeders     Added 2012-11-13 23:40:31

Stream torrent
Starting‥ You need BitLord! Get it from 1BitLord.com
To download or stream you need BitLord. Visit them at BitLord.com
- 
http://www.Speed.Cd
 
http://www.Speed.Cd       the fast  and The Hottest Private Tracker on the net

Please Seed back to make the speed Faster!!
 ............ NFO .............
-General
Unique ID                                : 185218149280279799346897247775485430969 (0x8B57B7CE793FF765B169817E9ED98CB9)
Complete name                            : Criminal Minds S08E06 720p WEB-DL DD5.1 H264-NFHD.mkv
Format                                   : Matroska
Format version                           : Version 2
File size                                : 1.34 GiB
Duration                                 : 42mn 52s
Overall bit rate                         : 4 467 Kbps
Encoded date                             : UTC 2012-11-12 13:23:29
Writing application                      : mkvmerge v5.8.0 ('No Sleep / Pillow') built on Sep  2 2012 15:37:04
Writing library                          : libebml v1.2.3 + libmatroska v1.3.0

Video
ID                                       : 1
Format                                   : AVC
Format/Info                              : Advanced Video Codec
Format profile                           : High@L3.1
Format settings, CABAC                   : No
Format settings, ReFrames                : 2 frames
Codec ID                                 : V_MPEG4/ISO/AVC
Duration                                 : 42mn 52s
Bit rate                                 : 3 994 Kbps
Width                                    : 1 280 pixels
Height                                   : 720 pixels
Display aspect ratio                     : 16:9
Frame rate mode                          : Constant
Frame rate                               : 23.976 fps
Color space                              : YUV
Chroma subsampling                       : 4:2:0
Bit depth                                : 8 bits
Scan type                                : Progressive
Bits/(Pixel*Frame)                       : 0.181
Stream size                              : 1.20 GiB (89%)
Title                                    : Criminal Minds - Season 8, Episode 6: The Apprenticeship
Language                                 : English
Default                                  : Yes
Forced                                   : No
Color primaries                          : BT.709
Transfer characteristics                 : BT.709
Matrix coefficients                      : BT.709

Audio
ID                                       : 2
Format                                   : AC-3
Format/Info                              : Audio Coding 3
Mode extension                           : CM (complete main)
Format settings, Endianness              : Big
Codec ID                                 : A_AC3
Duration                                 : 42mn 52s
Bit rate mode                            : Constant
Bit rate                                 : 384 Kbps
Channel(s)                               : 6 channels
Channel positions                        : Front: L C R, Side: L R, LFE
Sampling rate                            : 48.0 KHz
Bit depth                                : 16 bits
Compression mode                         : Lossy
Stream size                              : 118 MiB (9%)
Title                                    : Dolby Digital 5.1 @ 384 kbps
Language                                 : English
Default                                  : Yes
Forced                                   : No		
[ www.Speed.Cd ] - Criminal.Minds.S08E06.720p.WEB-DL.DD5.1.H264-NFHD/Criminal Minds S08E06 720p WEB-DL DD5.1 H264-NFHD.mkv 1.436 GB
[ www.Speed.Cd ] - Criminal.Minds.S08E06.720p.WEB-DL.DD5.1.H264-NFHD/Criminal Minds S08E06 720p WEB-DL DD5.1 H264-NFHD.nfo 3.275 KB
[ www.Speed.Cd ] - Criminal.Minds.S08E06.720p.WEB-DL.DD5.1.H264-NFHD/www.Speed.Cd read me .txt 47 B
Gathering some info...

Register and log in Isohunt and see no captcha anymore!

4000 symbols left
Hash 1b219bd1cf5d80ab3597999562976d36bd2cd71c

Related torrents for "Criminal Minds S08E06 720p WEB-DL DD5 1 H264-NFHD"

Torrent search:

h264 episode 06 season 08 hd web-dl