imdb
rating

7.0
ParaNorman

ParaNorman (2012)

Adventure, Animation, Comedy, Family

Full description
quality   dvdrip dvd screener bd x264 hd

Paranorman 2012 WEBRip XViD UNiQUE

Size 1.517 GB   9 seeders     Added 2012-11-14 02:40:29

Stream torrent
Starting‥ You need BitLord! Get it from BitLord.com
To download or stream you need BitLord. Visit them at BitLord.com
[img]image[/img]

Info:

Format : AVI
Format/Info : Audio Video Interleave
File size : 1.40 GiB
Duration : 1h 32mn
Overall bit rate : 2 168 Kbps
Writing application : VirtualDubMod 1.5.10.2 (build 2540/release)
Writing library : VirtualDubMod build 2540/release

Video
ID : 0
Format : MPEG-4 Visual
Format profile : Advanced Simple@L5
Format settings, BVOP : 2
Format settings, QPel : No
Format settings, GMC : No warppoints
Format settings, Matrix : Default (H.263)
Muxing mode : Packed bitstream
Codec ID : XVID
Codec ID/Hint : XviD
Duration : 1h 32mn
Bit rate : 1 967 Kbps
Width : 720 pixels
Height : 304 pixels
Display aspect ratio : 2.35:1
Frame rate : 23.976 fps
Color space : YUV
Chroma subsampling : 4:2:0
Bit depth : 8 bits
Scan type : Progressive
Compression mode : Lossy
Bits/(Pixel*Frame) : 0.375
Stream size : 1.27 GiB (91%)
Writing library : XviD 64

Audio
ID : 1
Format : AC-3
Format/Info : Audio Coding 3
Mode extension : CM (complete main)
Format settings, Endianness : Big
Codec ID : 2000
Duration : 1h 32mn
Bit rate mode : Constant
Bit rate : 192 Kbps
Channel(s) : 2 channels
Channel positions : Front: L R
Sampling rate : 48.0 KHz
Bit depth : 16 bits
Compression mode : Lossy
Stream size : 127 MiB (9%)
Alignment : Split accross interleaves
Interleave, duration : 42 ms (1.00 video frame)
Interleave, preload duration : 500 ms


http://www.imdb.com/title/tt1623288/

Ratings: 7.4/10 from 8,650 users Metascore: 72/100
Reviews: 88 user | 207 critic | 33 from Metacritic.com

A misunderstood boy takes on ghosts, zombies and grown-ups to save his town from a centuries-old curse.

Directors:
Chris Butler, Sam Fell
Writer:
Chris Butler
Stars:
Kodi Smit-McPhee, Anna Kendrick and Christopher Mintz-Plasse | See full cast and crew

Source Used


720p Toothfairy/iTuNES...........Thanks


Enjoy

Screens:

[img]image[/img]
[img]image[/img]
[img]image[/img]
Paranorman 2012 WEBRip XViD UNiQUE.avi 1.499 GB
readme.txt 56 B
sample.avi 17.603 MB
Gathering some info...

Register and log in Isohunt and see no captcha anymore!

4000 symbols left
Hash 6479250A3194047FBBD67C0710DFD29B3A6AEA2C

Related torrents for "Paranorman 2012 WEBRip XViD UNiQUE"

Torrent search:

2012 web-rip