Ted.(2012).DVD-RiP.XviD-SAM

Size 727.835 MB   0 seeders     Added 2012-11-14 02:39:43

To download or stream you need BitLord. Visit them at BitLord.com
Ted.(2012).DVD-RiP.XviD-SAM

•	Date de sortie  02 08 2012 (1h 47min) 
•	Réalisé par   Seth MacFarlane
•	Avec   Mark Wahlberg, Mila Kunis, Seth MacFarlane plus
•	Genre   Comédie
•	Nationalité  Américain





Synopsis et détails	
La relation amoureuse d'un homme est menacée par l'ours en peluche de son enfance, qui prend vie par magie.





Complete name                            : Ted.(2012).DVD-RiP.XviD-SAM
Format                                   : AVI
Format/Info                              : Audio Video Interleave
File size                                : 697 MiB
Duration                                 : 1h 22mn
Overall bit rate                         : 1 177 Kbps
Writing application                      : Lavf52.61.0
Writing library                          : VirtualDub build 34703/release

Video
ID                                       : 0
Format                                   : MPEG-4 Visual
Format profile                           : Advanced Simple@L5
Format settings, BVOP                    : 2
Format settings, QPel                    : No
Format settings, GMC                     : No warppoints
Format settings, Matrix                  : Default (H.263)
Muxing mode                              : Packed bitstream
Codec ID                                 : XVID
Codec ID/Hint                            : XviD
Duration                                 : 1h 46mn
Bit rate                                 : 1 101 Kbps
Width                                    : 640 pixels
Height                                   : 336 pixels
Display aspect ratio                     : 1.905
Frame rate                               : 29.970 fps
Color space                              : YUV
Chroma subsampling                       : 4:2:0
Bit depth                                : 8 bits
Scan type                                : Progressive
Compression mode                         : Lossy
Bits/(Pixel*Frame)                       : 0.171
Stream size                              : 647 MiB (94%)
Writing library                          : XviD 64

Audio
ID                                       : 1
Format                                   : MPEG Audio
Format version                           : Version 1
Format profile                           : Layer 3
Codec ID                                 : 55
Codec ID/Hint                            : MP3
Duration                                 : 1h 22mn
Bit rate mode                            : Constant
Bit rate                                 : 64.0 Kbps
Channel(s)                               : 2 channels
Sampling rate                            : 44.1 KHz
Compression mode                         : Lossy
Stream size                              : 37.6 MiB (5%)
Alignment                                : Split accross interleaves
Interleave, duration                     : 33 ms (1.00 video frame)
Interleave, preload duration             : 500 ms
Ted.(2012).DVD-RiP.XviD-SAM/Ted.(2012).DVD-RiP.XviD-SAM.nfo 2.995 KB
Ted.(2012).DVD-RiP.XviD-SAM/Ted.(2012).DVD-RiP.XviD-SAM/Ted.(2012).DVD-RiP.XviD-SAM.rar 727.831 MB
Ted.(2012).DVD-RiP.XviD-SAM/Ted.(2012).DVD-RiP.XviD-SAM/www.Torrentday.com.txt.txt 676 B
Gathering some info...

Register and log in Isohunt and see no captcha anymore!

4000 symbols left
Hash 4df3b9860a1a5d1d6be05615244ba749fb0871fb